Морской пехотинец: Тыл / Морской пехотинец 3 / The Marine 3: Homefront / The Marine: Homefront (Скотт Вайпер) [2013 г., Боевик, HDRip]

Ответить на тему
 

Sharaf_chuv ®

Стаж: 5 лет

Сообщений: 36

Симпатии: 1

Год выпуска: 2013
Страна: США
Жанр: Боевик
Продолжительность: 01:30:09
Перевод: Любительский (одноголосый) [den 904]
Режиссер: Скотт Вайпер
В ролях: Майк Мизанин, Нил МакДонаф, Джаред Кисо, Джеффри Баллард, Бен Коттон, Стив Бачич, Шон Тайсон, Дарси Лори, Алекс Паунович, Николя Андерсон...
Описание: Морской пехотинец должен сделать все возможное, чтобы спасти свою похищенную племянницу и остановить атаку радикальной вооруженной группы террористов.- -Качество: HDRip
Формат: AVI
Видео кодек: XviD
Аудио кодек: MPEG Audio
Видео: 640x352 (1.82:1), 23.976 fps, XviD build 50 ~947 kbps avg, 0.17 bit/pixel
Аудио: 48 kHz, MPEG Layer 3, 2 CH, ~128.00 kbps-

MediaInfo

Общее
Полное имя : E:\Morskoj_pehatinec_tyl_2013_HDRip_700.avi
Формат : AVI
Формат/Информация : Audio Video Interleave
Размер файла : 700 Мбайт
Продолжительность : 1 ч. 30 м.
Общий поток : 1085 Кбит/сек
Программа кодирования : VirtualDubMod 1.5.10.3 | www.virtualdub-fr.org || (build 2550/release)
Библиотека кодирования : VirtualDubMod build 2550/release
Видео
Идентификатор : 0
Формат : MPEG-4 Visual
Профиль формата : Advanced [email protected]
Параметр BVOP формата : 1
Параметр QPel формата : Нет
Параметр GMC формата : Без точки перехода
Параметр матрицы формата : Default (MPEG)
Идентификатор кодека : XVID
Идентификатор кодека/Подсказка : XviD
Продолжительность : 1 ч. 30 м.
Битрейт : 948 Кбит/сек
Ширина : 640 пикселей
Высота : 352 пикселя
Соотношение сторон : 16:9
Частота кадров : 23,976 кадра/сек
Цветовое пространство : YUV
Субдискретизация насыщенности : 4:2:0
Битовая глубина : 8 бит
Тип развёртки : Прогрессивная
Метод сжатия : С потерями
Бит/(Пиксели*Кадры) : 0.175
Размер потока : 611 Мбайт (87%)
Библиотека кодирования : XviD 1.2.1 (UTC 2008-12-04)
Аудио
Идентификатор : 1
Формат : MPEG Audio
Версия формата : Version 1
Профиль формата : Layer 3
Идентификатор кодека : 55
Идентификатор кодека/Подсказка : MP3
Продолжительность : 1 ч. 30 м.
Вид битрейта : Постоянный
Битрейт : 128 Кбит/сек
Каналы : 2 канала
Частота : 48,0 КГц
Метод сжатия : С потерями
Размер потока : 82,5 Мбайт (12%)
Выравнивание : Соединение по промежуткам
Продолжительность промежутка : 42 мс. (1,00 видеокадр)
Время предзагрузки промежутка : 504 мс.
Библиотека кодирования : LAME3.98r
Настройки программы : -m s -V 4 -q 2 -lowpass 17 -b 128

Скриншоты

Создавать темы 11-Мар-2013 13:10

[Профиль]  [ЛС] 

Sharaf_chuv ®

Стаж: 5 лет

Сообщений: 36

Симпатии: 1

Создавать темы 11-Мар-2013 13:52

[Профиль]  [ЛС] 

LiX

Стаж: 6 лет 4 месяца

Сообщений: 254

Симпатии: 6

Походу всем фанатам Миза посвящается)

Создавать темы 11-Мар-2013 13:56

[Профиль]  [ЛС] 

Shock

Стаж: 6 лет 10 месяцев

Сообщений: 85

Симпатии: 1

фильм не очень IMHO

Создавать темы 27-Мар-2013 11:44

[Профиль]  [ЛС] 
Показать сообщения:    
Ответить на тему

Текущее время: 23-Сен 17:59

Часовой пояс: UTC + 5



Вы не можете начинать темы
Вы не можете отвечать на сообщения
Вы не можете редактировать свои сообщения
Вы не можете удалять свои сообщения
Вы не можете голосовать в опросах
Вы не можете прикреплять файлы к сообщениям
Вы не можете скачивать файлы