Час пик (Трилогия) / Rush Hour (Trilogy) (Бретт Рэтнер) (1998 г., 2001 г., 2007 г., боевик, триллер, комедия, криминал, BDRip, HDTVRip)

Ответить на тему
 

iskanderr ®

Стаж: 4 года 7 месяцев

Сообщений: 10

Час пик / Rush hour
Год выпуска: 1998
Страна: США
Жанр: боевик, триллер, комедия, криминал
Продолжительность: 01:37:47
Перевод: Профессиональный (полное дублирование)
Режиссер: Бретт Рэтнер
В ролях: Джеки Чан, Крис Такер, Элизабет Пенья, Том Уилкинсон, Марк Ролстон, Филип Бейкер Холл, Кен Люн, Ци Ма, Роберт Литман,Майкл Чоу
Описание: В Лос-Анджелесе злодеи похищают малолетнюю дочь китайского консула, которую в Гонконге учил кунг-фу инспектор Ли. Консул вызывает Ли в Америку, чтобы тот принял участие в освобождении девочки.
Агенты ФБР обратились к полиции с просьбой выделить им самого никчемного сотрудника, чтобы тот взял китайца на себя и показал ему достопримечательности, а главное, не позволил вмешиваться в их дела.
Им оказывается самый болтливый полицейский Картер. Естественно, после ряда разногласий и недоразумений они объединяют усилия и всерьез берутся за вызволение заложницы.
Качество: BDRip
Формат: MKV
Видео кодек: Другой MPEG4
Аудио кодек: AC3
Видео: 1280x524, 2906 Кбит/сек, 23.976 кадр/сек, AVC, x264, 2.40:1, 0.171 Бит/(Пиксели*Кадры)
Аудио: 448 Кбит/сек, 6 канала(ов), 48,0 КГц

Media Info

General
Format : Matroska
Format version : Version 2
File size : 2.26 GiB
Duration : 1h 37mn
Overall bit rate mode : Variable
Overall bit rate : 3 314 Kbps
Movie name : Rip by NigAndr
Encoded date : UTC 2010-09-15 21:17:25
Writing application : mkvmerge v3.0.0 ('Hang up your Hang-Ups') built on Dec 12 2009 15:20:35
Writing library : libebml v0.7.9 + libmatroska v0.8.1
Video
ID : 2
Format : AVC
Format/Info : Advanced Video Codec
Format profile : [email protected]
Format settings, CABAC : Yes
Format settings, ReFrames : 3 frames
Codec ID : V_MPEG4/ISO/AVC
Duration : 1h 37mn
Bit rate mode : Variable
Bit rate : 2 906 Kbps
Maximum bit rate : 17.5 Mbps
Width : 1 280 pixels
Height : 524 pixels
Display aspect ratio : 2.40:1
Original display aspect ratio : 2.40:1
Frame rate : 23.976 fps
Color space : YUV
Chroma subsampling : 4:2:0
Bit depth : 8 bits
Scan type : Progressive
Bits/(Pixel*Frame) : 0.181
Stream size : 1.91 GiB (84%)
Title : Час пик.(1998)
Writing library : x264 core 104 r1713 c276662
Language : English
Default : Yes
Forced : No

Скриншоты



Час пик 2 / Rush hour 2
Год выпуска: 2001
Страна: США, Гонконг
Жанр: боевик, триллер, комедия, криминал
Продолжительность: 01:30:00
Перевод: Профессиональный (полное дублирование)
Режиссер: Бретт Рэтнер
В ролях: Джеки Чан, Том Уилкинсон, Тзи Ма, Роберт Литман, Майкл Чоу, Джулия Хсю, Крис Такер, Крис Пенн, Кари Леннокс, Джон Лоне, Цзыи Чжан, Розелин Санчез, Харрис Юлин, Алан Кинг, Кеннет Цан, Мей Меланкон, Хироюки Санада, Йоуки Кудо, Макс фон Сюдов, Айван Аттал, Ноеми Ленуар, Жинчу Чжан, Тзи Ма, Роман Полански
Описание: История начинается непосредственно с того момента, на котором закончилась первая часть — полицейские Ли и Картер прибывают в Гонконг по следам преступников, замышляющих похищение китайский сокровищ и продажи их в штатах.
По мере того, как детективы Картер и Ли становятся все больше и больше запутанными в преступном заговоре, вовлекающем их в смертоносную Триаду, поездка в стиле нон-стоп от Гонконга до Лос-Анджелеса и Лас-Вегаса, оборачивается для них безумно интересным, смешным и в то же время опасным приключением.
Полицейские должны использовать все свои навыки, чтобы заманить в ловушку одного из самых опасных преступников в мире…
Качество: HDTVRip
Формат: MKV
Видео кодек: Другой MPEG4
Аудио кодек: AC3
Видео: 1280x512, 2800 Кбит/сек, 23,000 кадр/сек, AVC, x264, 2,000, 0.186Бит/(Пиксели*Кадры)
Аудио: 384 Кбит/сек, 6 канала(ов), 44,0 КГц

Media Info

General
Format : Matroska
Format version : Version 2
File size : 2.00 GiB
Duration : 1h 30mn
Overall bit rate : 3 174 Kbps
Movie name : Rip By Neytrino95
Encoded date : UTC 2011-01-25 12:09:58
Writing application : mkvmerge v3.2.0 ('Beginnings') built on Feb 12 2010 16:46:17
Writing library : libebml v0.7.9 + libmatroska v0.8.1
Video
ID : 1
Format : AVC
Format/Info : Advanced Video Codec
Format profile : [email protected]
Format settings, CABAC : No
Format settings, ReFrames : 1 frame
Codec ID : V_MPEG4/ISO/AVC
Duration : 1h 30mn
Bit rate : 2 800 Kbps
Width : 1 280 pixels
Height : 512 pixels
Display aspect ratio : 2.000
Original display aspect ratio : 2.500
Frame rate : 23.000 fps
Color space : YUV
Chroma subsampling : 4:2:0
Bit depth : 8 bits
Scan type : Progressive
Bits/(Pixel*Frame) : 0.186
Stream size : 1.71 GiB (86%)
Writing library : x264 core 80 r1378+57 6f6b50a
Default : Yes
Forced : No
Audio
ID : 2
Format : AC-3
Format/Info : Audio Coding 3
Mode extension : CM (complete main)
Format settings, Endianness : Big
Codec ID : A_AC3
Duration : 1h 30mn
Bit rate mode : Constant
Bit rate : 384 Kbps
Channel(s) : 6 channels
Channel positions : Front: L C R, Side: L R, LFE
Sampling rate : 44.1 KHz
Bit depth : 16 bits
Compression mode : Lossy
Stream size : 247 MiB (12%)
Default : Yes
Forced : No

Скриншот



Час пик 3 / Rush Hour 3
Год выпуска: 2007
Страна: США, Германия
Жанр: боевик, триллер, комедия, криминал
Продолжительность: 01:30:47
Перевод: Профессиональный (полное дублирование)
Режиссер: Бретт Рэтнер
В ролях: Крис Такер, Джеки Чан, Макс фон Сюдов, Хироюки Санада, Иван Атталь, Юки Кудо, Ноэми Ленуар, Чжан Цзинчу, Ци Ма, Дэна Айви
Описание: Лос-анджелесского полицейского Джеймса Картера, допустившего грубую ошибку при аресте подозреваемого, переводят на гораздо менее престижную должность в дорожной полиции. Тем временем гонконгский полицейский инспектор Ли получает спецзадание: он должен охранять китайского посла Хана, который направляется в Лос-Анджелес, чтобы произнести там речь на саммите Всемирного уголовного суда.
Хан намеревается разоблачить интриги китайской Триады — самого опасного криминального синдиката в мире — и вывести на чистую воду преступных боссов. Представители Триады, разумеется, не дремлют. Они отправляют в Лос-Анджелес наемного убийцу, которому удается ранить посла в тот самый момент, когда он начинает произносить свою разоблачительную речь. Ли бросается вдогонку за преступником. Тем временем Картер, услышав по полицейскому радио сообщение о покушении на посла, мчится на место преступления… и, естественно, только путается под ногами у Ли.
Доп. информация:
Премия канала «MTV», 2008 год
Номинации (1):
Лучшая драка
Премия канала «MTV», 2007 год
Номинации (1):
Лучший фильм лета, который вы еще не видели
Качество: BDRip
Формат: MKV
Видео кодек: Другой MPEG4
Аудио кодек: AC3
Видео: 1280x528, 2959 Кбит/сек, 23.976 кадр/сек, AVC, x264, 2.40:1, 0.171 Бит/(Пиксели*Кадры)
Аудио: 448 Кбит/сек, 6 канала(ов), 48,0 КГц

Media Info

Format : Matroska
Format version : Version 2
File size : 2.08 GiB
Duration : 1h 30mn
Overall bit rate mode : Variable
Overall bit rate : 3 281 Kbps
Movie name : Rip by 3DRAGO3 (NOLIMITS-TEAM.RU)
Encoded date : UTC 2010-10-17 12:27:17
Writing application : mkvmerge v4.2.0 ('No Talking') сборка от Jul 29 2010 19:19:44
Writing library : libebml v1.0.0 + libmatroska v1.0.0
Video
ID : 1
Format : AVC
Format/Info : Advanced Video Codec
Format profile : [email protected]
Format settings, CABAC : Yes
Format settings, ReFrames : 3 frames
Muxing mode : Header stripping
Codec ID : V_MPEG4/ISO/AVC
Duration : 1h 30mn
Bit rate mode : Variable
Bit rate : 2 767 Kbps
Nominal bit rate : 2 959 Kbps
Maximum bit rate : 17.5 Mbps
Width : 1 280 pixels
Height : 528 pixels
Display aspect ratio : 2.40:1
Frame rate : 23.976 fps
Color space : YUV
Chroma subsampling : 4:2:0
Bit depth : 8 bits
Scan type : Progressive
Bits/(Pixel*Frame) : 0.171
Stream size : 1.76 GiB (84%)
Title : Час пик 3.[Nolimits-Team.ru]
Writing library : x264 core 104 r1713 c276662
Language : English
Default : Yes
Forced : No
Audio
ID : 2
Format : AC-3
Format/Info : Audio Coding 3
Mode extension : CM (complete main)
Format settings, Endianness : Big
Muxing mode : Header stripping
Codec ID : A_AC3
Duration : 1h 30mn
Bit rate mode : Constant
Bit rate : 448 Kbps
Channel(s) : 6 channels
Channel positions : Front: L C R, Side: L R, LFE
Sampling rate : 48.0 KHz
Bit depth : 16 bits
Compression mode : Lossy
Delay relative to video : 800ms
Stream size : 291 MiB (14%)
Title : Дубляж
Language : Russian
Default : Yes
Forced : No

Скриншот








Последний раз редактировалось: iskanderr (2013-04-10 22:30), всего редактировалось 4 раз(а)

Создавать темы 12-Мар-2013 07:09

[Профиль]  [ЛС] 

bumblebee

Стаж: 7 лет 2 месяца

Сообщений: 97

Симпатии: 1

уважаемые модераторы когда будет проверен данный релиз?

Создавать темы 15-Мар-2013 08:48

[Профиль]  [ЛС] 

iskanderr ®

Стаж: 4 года 7 месяцев

Сообщений: 10

Жду уже столько дней...И правда,когда проверите релиз

Создавать темы 15-Мар-2013 17:23

[Профиль]  [ЛС] 

Топик был перенесен из форума Зарубежное кино в форум HD-AVC

ziyod

Создавать темы 10-Апр-2013 22:31

 

ziyod

Стаж: 7 лет 7 месяцев

Сообщений: 367

Симпатии: 60

Почти весь переоформил, следующий раз соблюдайте правила...

Создавать темы 10-Апр-2013 22:33

[Профиль]  [ЛС] 
Показать сообщения:    
Ответить на тему

Текущее время: 19-Окт 10:42

Часовой пояс: UTC + 5



Вы не можете начинать темы
Вы не можете отвечать на сообщения
Вы не можете редактировать свои сообщения
Вы не можете удалять свои сообщения
Вы не можете голосовать в опросах
Вы не можете прикреплять файлы к сообщениям
Вы не можете скачивать файлы