Измена (Кирилл Серебренников) [2012 г., триллер, драма, DVDRip]

Ответить на тему
 

victor0778 ®

Стаж: 6 лет 9 месяцев

Сообщений: 1670

Симпатии: 142

Измена-«С тобой это случилось, но ты об этом еще не знаешь»
Год выпуска: 2012
Страна: Россия
Жанр: триллер, драма
Продолжительность: 01:54:42
Перевод: Оригинал -Режиссер: Кирилл Серебренников-В ролях: Франциска Петри (Она), Деян Лилич (Он), Альбина Джанабаева (жена), Андрей Щетинин (первый муж), Артурс Скрастыньш (второй муж), Гуна Зариня (следователь), Артур Бесчастный (дознаватель), Александра Нестерова (девочка)-Описание: Двое случайных знакомых узнают о том, что их супруги являются любовниками. Это открытие заставляет их совершать поступки, на которые они не решились бы ранее.Ревность или страсть, месть или прощение — герои ищут основы для новой жизни, но сделать это нелегко — измена подчиняет все их поступки своей логике.-Качество: DVDRip
Формат: AVI
Видео кодек: XviD
Аудио кодек: AC3
Видео: 720x304 (2.35:1), 25.000 fps, XviD, 1 363 Kbps
Аудио: AC3, 448 Kbps, 48.0 KHz, 6 ch-
 

МедиаИнфо

General
Complete name                    : Izmena.2012.O.DVDRip.1_45Gb.avi
Format                           : AVI
Format/Info                      : Audio Video Interleave
File size                        : 1.46 GiB
Duration                         : 1h 54mn
Overall bit rate                 : 1 821 Kbps
Writing application              : VirtualDubMod 1.5.10.3 | www.virtualdub-fr.org || (build 2550/release)
Writing library                  : VirtualDubMod build 2550/release
Video
ID                               : 0
Format                           : MPEG-4 Visual
Format profile                   : Advanced [email protected]
Format settings, BVOP            : No
Format settings, QPel            : No
Format settings, GMC             : No warppoints
Format settings, Matrix          : Custom
Codec ID                         : XVID
Codec ID/Hint                    : XviD
Duration                         : 1h 54mn
Bit rate                         : 1 363 Kbps
Width                            : 720 pixels
Height                           : 304 pixels
Display aspect ratio             : 2.35:1
Frame rate                       : 25.000 fps
Color space                      : YUV
Chroma subsampling               : 4:2:0
Bit depth                        : 8 bits
Scan type                        : Progressive
Bits/(Pixel*Frame)               : 0.249
Stream size                      : 1.09 GiB (75%)
Writing library                  : XviD 1.2.1 (UTC 2008-12-04)
Audio
ID                               : 1
Format                           : AC-3
Format/Info                      : Audio Coding 3
Mode extension                   : CM (complete main)
Codec ID                         : 2000
Duration                         : 1h 54mn
Bit rate mode                    : Constant
Bit rate                         : 448 Kbps
Channel(s)                       : 6 channels
Channel positions                : Front: L C R, Side: L R, LFE
Sampling rate                    : 48.0 KHz
Bit depth                        : 16 bits
Video delay                      : 1s 600ms
Stream size                      : 367 MiB (25%)
Alignment                        : Split accross interleaves
Interleave, duration             : 40 ms (1.00 video frame)
Interleave, preload duration     : 500 ms

Скриншоты

Создавать темы 12-Мар-2013 17:23

[Профиль]  [ЛС] 

Muhammadnazar

Стаж: 4 года 10 месяцев

Сообщений: 28

Симпатии: 1

Супер! Спасибо Вам Виктор!!!

Создавать темы 12-Мар-2013 21:45

[Профиль]  [ЛС] 

Sinema_uz

Стаж: 6 лет 10 месяцев

Сообщений: 303

Симпатии: 4

я чеота не понел то он убивает жену!!! то опять встричается той который умер муж какойта двухсмыслиный фильм простите канешно!!11

Создавать темы 15-Мар-2013 22:38

[Профиль]  [ЛС] 

victor0778 ®

Стаж: 6 лет 9 месяцев

Сообщений: 1670

Симпатии: 142

Sinema_uz, жена посмотрела и сделала вывод, что этот фильм очень тяжелый и беспонтовый

Создавать темы 16-Мар-2013 17:45

[Профиль]  [ЛС] 

Erizo

Стаж: 6 лет 10 месяцев

Сообщений: 8

Мужики ДАЙТЕ СКОРОСТИ.... очень прошу!
а то скорости полное уг... два года качать фильм. вообще как то не катит

Создавать темы 22-Окт-2013 12:38

[Профиль]  [ЛС] 

Татарин

Стаж: 5 лет 6 месяцев

Сообщений: 134

Симпатии: 5

Джанабаева там хрудь показала))

Создавать темы 20-Дек-2014 22:41

[Профиль]  [ЛС] 
Показать сообщения:    
Ответить на тему

Текущее время: 19-Ноя 04:03

Часовой пояс: UTC + 5



Вы не можете начинать темы
Вы не можете отвечать на сообщения
Вы не можете редактировать свои сообщения
Вы не можете удалять свои сообщения
Вы не можете голосовать в опросах
Вы не можете прикреплять файлы к сообщениям
Вы не можете скачивать файлы