Рыбалка в России. А у меня всегда клюёт!!(Расовский А. А.) [1998г. Обучающее видео, DVDRip]

Ответить на тему
 

rob ®

Стаж: 5 лет 3 месяца

Сообщений: 34

Симпатии: 5

Рыбалка в России. А у меня всегда клюёт!!
Страна: Россия
Жанр: Обучающее видео, рыбалка
Режиссер: Расовский А. А.
В ролях: Сидоров Е. И.
Продолжительность: 58.47
Год выпуска: 1998
Описание: "Рыбалка в России" представляет авторский видеофильм самобытного рыболова-любителя Сидорова Евгения Ивановича "А у меня всегда клюёт!!!". Евгений Иванович Сидоров подробно расскажет и покажет как подготовиться к рыбалке и поймать карася! Фильм далеко не новый (1998 год) но не потерявший актуальности и сейчас. Полезные советы от опытного рыбака о ловле карася для новичков и не только.
Качество: DVDRip
Формат: AVI
Видео кодек: XviD
Аудио кодек: MP3
Видео: 1555 Kbps, 25.0 fps, разрешение 640*480 (4:3)
Аудио: 48 Kbps, 44100 Hz, 2 каналов, MP3

Mediainfo

Format : AVI
Format/Info : Audio Video Interleave
File size : 674 MiB
Duration : 58mn 47s
Overall bit rate : 1 603 Kbps
Video
ID : 0
Format : xvid
Codec ID : xvid
Duration : 58mn 47s
Bit rate : 1 542 Kbps
Width : 640 pixels
Height : 480 pixels
Display aspect ratio : 4:3
Frame rate : 25.000 fps
Bits/(Pixel*Frame) : 0.201
Stream size : 648 MiB (96%)
Audio
ID : 1
Format : MPEG Audio
Format version : Version 1
Format profile : Layer 3
Mode : Joint stereo
Mode extension : MS Stereo
Codec ID : 55
Codec ID/Hint : MP3
Duration : 58mn 47s
Bit rate mode : Constant
Bit rate : 48.0 Kbps
Channel(s) : 2 channels
Sampling rate : 44.1 KHz
Compression mode : Lossy
Stream size : 20.2 MiB (3%)
Alignment : Aligned on interleaves
Interleave, duration : 26 ms (0.65 video frame)

Скриншоты



Создавать темы 12-Мар-2013 21:25

[Профиль]  [ЛС] 

makslim

Стаж: 5 лет 10 месяцев

Сообщений: 13

еще есть серии

Создавать темы 08-Апр-2013 06:57

[Профиль]  [ЛС] 
Показать сообщения:    
Ответить на тему

Текущее время: 15-Дек 11:32

Часовой пояс: UTC + 5



Вы не можете начинать темы
Вы не можете отвечать на сообщения
Вы не можете редактировать свои сообщения
Вы не можете удалять свои сообщения
Вы не можете голосовать в опросах
Вы не можете прикреплять файлы к сообщениям
Вы не можете скачивать файлы