Хранители снов (Питер Рэмси)[1080p] [2012 г., Мультфильм, фэнтези, приключения, семейный, BDRip]

Ответить на тему
 

СтАсИкОс ®

Стаж: 6 лет 8 месяцев

Сообщений: 314

Симпатии: 20

Хранители снов/ Rise of the Guardians-- --Год выпуска: 2012
Страна: США, DreamWorks Animation
Жанр: Мультфильм, фэнтези, приключения, семейный
Продолжительность: 01:37:11
Режиссер: Питер Рэмси
Перевод: Профессиональный (многоголосый, закадровый)--В ролях: Алек Болдуин, Айла Фишер, Дакота Гойо, Хью Джекман, Джуд Лоу, Крис Пайн, Хамани Гриффин, Камиль МакФедден, Джорджи Грив, Эмили Нордвинд--Описание: Когда злой дух Кромешник посягает на самое дорогое — детские мечты, Северянин, Ледяной Джек, Кролик, Зубная Фея и Песочный Человек впервые объединяются, чтобы создать команду Хранителей снов…
--Качество: BDRip
Формат: MKV
Видео кодек: H.26x
Разрешение: 1920x1080
Аудио кодек: AC3
Видео: h264 6880 kb/s
Аудио1: ac3, 48000 Hz, 5.1, s16, 448 kb/s (default), (rus)
Аудио2: ac3, 48000 Hz, 5.1, s16, 640 kb/s, (eng)

Медиа инфо

Общее
Уникальный идентификатор : 197556854979900714319617906136327015410 (0x94A010F73BA3EDC18CAD3AE6AC2A4BF2)
Полное имя : E:\Видео\haraniteli_snov_1080p_cooldx.mkv
Формат : Matroska
Версия формата : Version 2
Размер файла : 4,67 Гбайт
Продолжительность : 1 ч. 37 м.
Общий поток : 6881 Кбит/сек
Название фильма : Rise of the Guardians (2012) - Release from CoolDX
Дата кодирования : UTC 2013-03-09 19:20:26
Программа кодирования : mkvmerge v4.2.0 ('No Talking') сборка от Jul 28 2010 18:38:23
Библиотека кодирования : libebml v1.0.0 + libmatroska v1.0.0
Видео
Идентификатор : 1
Формат : AVC
Формат/Информация : Advanced Video Codec
Профиль формата : [email protected]
Параметр CABAC формата : Да
Параметр ReFrames формата : 4 кадра
Режим смешивания : Header stripping
Идентификатор кодека : V_MPEG4/ISO/AVC
Продолжительность : 1 ч. 37 м.
Битрейт : 5793 Кбит/сек
Ширина : 1920 пикселей
Высота : 1080 пикселей
Соотношение сторон : 16:9
Режим частоты кадров : Постоянный
Частота кадров : 23,976 кадра/сек
Цветовое пространство : YUV
Субдискретизация насыщенности : 4:2:0
Битовая глубина : 8 бит
Тип развёртки : Прогрессивная
Бит/(Пиксели*Кадры) : 0.117
Размер потока : 3,84 Гбайт (82%)
Библиотека кодирования : x264 core 129 r2245 bc13772
Настройки программы : cabac=1 / ref=4 / deblock=1:0:0 / analyse=0x3:0x133 / me=umh / subme=7 / psy=1 / psy_rd=1.00:0.00 / mixed_ref=1 / me_range=16 / chroma_me=1 / trellis=1 / 8x8dct=1 / cqm=0 / deadzone=21,11 / fast_pskip=0 / chroma_qp_offset=-2 / threads=18 / lookahead_threads=3 / sliced_threads=0 / nr=0 / decimate=1 / interlaced=0 / bluray_compat=0 / constrained_intra=0 / bframes=3 / b_pyramid=2 / b_adapt=1 / b_bias=0 / direct=1 / weightb=1 / open_gop=0 / weightp=2 / keyint=250 / keyint_min=23 / scenecut=40 / intra_refresh=0 / rc_lookahead=40 / rc=2pass / mbtree=1 / bitrate=5793 / ratetol=1.0 / qcomp=0.60 / qpmin=0 / qpmax=69 / qpstep=4 / cplxblur=20.0 / qblur=0.5 / ip_ratio=1.40 / aq=1:1.00
Язык : English
Default : Да
Forced : Нет
Аудио #1
Идентификатор : 2
Формат : AC-3
Формат/Информация : Audio Coding 3
Расширение режима : CM (complete main)
Параметр Endianness формата : Big
Режим смешивания : Header stripping
Идентификатор кодека : A_AC3
Продолжительность : 1 ч. 37 м.
Вид битрейта : Постоянный
Битрейт : 448 Кбит/сек
Каналы : 6 каналов
Расположение каналов : Front: L C R, Side: L R, LFE
Частота : 48,0 КГц
Битовая глубина : 16 бит
Метод сжатия : С потерями
Задержка видео : 4 мс.
Размер потока : 311 Мбайт (7%)
Заголовок : AC3 5.1 @ 448 kbps DUB, Blu-ray CEE
Язык : Russian
Default : Да
Forced : Нет
Аудио #2
Идентификатор : 3
Формат : AC-3
Формат/Информация : Audio Coding 3
Расширение режима : CM (complete main)
Параметр Endianness формата : Big
Режим смешивания : Header stripping
Идентификатор кодека : A_AC3
Продолжительность : 1 ч. 37 м.
Вид битрейта : Постоянный
Битрейт : 640 Кбит/сек
Каналы : 6 каналов
Расположение каналов : Front: L C R, Side: L R, LFE
Частота : 48,0 КГц
Битовая глубина : 16 бит
Метод сжатия : С потерями
Размер потока : 445 Мбайт (9%)
Заголовок : AC3 5.1 @ 640 kbps ENG, Blu-ray CEE
Язык : English
Default : Нет
Forced : Нет
Текст
Идентификатор : 4
Формат : UTF-8
Идентификатор кодека : S_TEXT/UTF8
Идентификатор кодека/Информация : UTF-8 Plain Text
Заголовок : English
Язык : English
Default : Нет
Forced : Нет
Меню
00:00:00.000 : en:00:00:00.000
00:03:51.481 : en:00:03:51.481
00:10:34.843 : en:00:10:34.843
00:16:17.643 : en:00:16:17.643
00:24:49.363 : en:00:24:49.363
00:30:38.378 : en:00:30:38.378
00:36:38.947 : en:00:36:38.947
00:43:05.166 : en:00:43:05.166
00:50:22.311 : en:00:50:22.311
00:58:09.611 : en:00:58:09.611
01:03:55.331 : en:01:03:55.331
01:09:12.815 : en:01:09:12.815
01:14:03.189 : en:01:14:03.189
01:20:44.923 : en:01:20:44.923
01:24:51.503 : en:01:24:51.503
01:28:33.892 : en:01:28:33.892
-- --

Скриншоты





Последний раз редактировалось: СтАсИкОс (2013-03-28 14:36), всего редактировалось 15 раз(а)

Создавать темы 13-Мар-2013 17:40

[Профиль]  [ЛС] 

mp1988

Стаж: 6 лет 7 месяцев

Сообщений: 607

Симпатии: 971

добавьте страну и перевод.
Также добавьте в видео разрешение
Качество BDRip
если можно медиа инфо


Последний раз редактировалось: mp1988 (2013-03-13 19:38), всего редактировалось 1 раз

Создавать темы 13-Мар-2013 19:19

[Профиль]  [ЛС] 

demir

Стаж: 6 лет 5 месяцев

Сообщений: 5

Где же раздача?

Создавать темы 13-Мар-2013 19:29

[Профиль]  [ЛС] 

ralex

Стаж: 5 лет 8 месяцев

Сообщений: 289

Симпатии: 28

ay

Создавать темы 18-Мар-2013 16:02

[Профиль]  [ЛС] 

grimjow

Стаж: 4 года 10 месяцев

Сообщений: 20

а скриншоты где ????

Создавать темы 07-Апр-2013 21:26

[Профиль]  [ЛС] 

wink

Стаж: 4 года 11 месяцев

Сообщений: 10

Симпатии: 1

Звук опережает на 5-6 сек, исправьте если можно плиз. смотреть не возможно

Создавать темы 09-Апр-2013 14:13

[Профиль]  [ЛС] 

СтАсИкОс ®

Стаж: 6 лет 8 месяцев

Сообщений: 314

Симпатии: 20

Обновите кодеки, попробуйте открыть другим плэйером, у меня данная проблема не наблюдается!

Создавать темы 16-Апр-2013 13:39

[Профиль]  [ЛС] 

exec

Стаж: 6 лет 5 месяцев

Сообщений: 49

Симпатии: 8

Мульт супер!

Создавать темы 07-Июл-2013 20:27

[Профиль]  [ЛС] 

Tas-ix.Yahoo

Стаж: 5 лет

Сообщений: 121

Симпатии: 6

4.67 GB ?????

Создавать темы 22-Авг-2013 11:03

[Профиль]  [ЛС] 
Показать сообщения:    
Ответить на тему

Текущее время: 21-Сен 06:38

Часовой пояс: UTC + 5



Вы не можете начинать темы
Вы не можете отвечать на сообщения
Вы не можете редактировать свои сообщения
Вы не можете удалять свои сообщения
Вы не можете голосовать в опросах
Вы не можете прикреплять файлы к сообщениям
Вы не можете скачивать файлы