Метро (Антон Мегердичев) [2012 г., триллер, драма, BDRip 720p] [Лицензия]

Ответить на тему
 

yusupbay9595 ®

Стаж: 4 года 9 месяцев

Сообщений: 6

Симпатии: 1

-- Год выпуска: 2012
Страны:Россия
Жанры: триллер, драма,
Продолжительность: 02:11:44-- Режиссер: Антон Мегердичев-- В ролях:Сергей Пускепалис, Анатолий Белый, Анфиса Вистингаузен, Алексей Бардуков, Катерина Шпица, Елена Панова, Станислав Дужников, Светлана Ходченкова, Сергей Сосновский, Ярослав Жалнин-- О фильме: Широко развернувшееся в центре Москвы строительство новых зданий приводит к тому, что в одном из тоннелей метро между двумя станциями возникает трещина. Никто себе и представить не мог, что в результате нарушения герметичности перекрытия в тоннель хлынет вода из Москва-реки, и сотни пассажиров поезда окажутся во власти надвигающегося потопа. Бешеный поток воды грозит не только обрушением тоннелей метро, но и разрушением всего города.
Среди попавших в беду людей — врач городской больницы Андрей Гарин и его дочь Ксюша. Гарин сражается с катастрофой, пытаясь спасти оставшихся в живых пассажиров, в том числе и …любовника своей жены. Гарину придется побороть обиду, гнев и страх. Он должен выжить, чтобы вернуть свою любовь, семью… свою прежнюю счастливую жизнь.
--Бюджет: $9 000 000
Сборы в мире: $9 468 494
Сборы в России: $9 051 931
Зрители: Россия 1.44 млн, Украина 45.4 тыс.
Премьера (мир): 21 февраля 2013
Премьера (РФ): 21 февраля 2013, «Наше Кино»
Релиз на DVD: 12 марта 2013, «Lizard Cinema Trade»
Релиз на Blu-Ray: 12 марта 2013, «Lizard Cinema Trade»-- -- Качество: BDRip 720p
Формат: MKV
Видео: 1280x544 (2.35:1), 23.976 fps, AVC, 3 986 Kbps
Аудио: #1: AC3, 640 Kbps, 48.0 KHz, 6 ch--

МедиаИнфо

General
Complete name : Metro.2013.BDRip.720p.H264.AC3.-HQCLUB-[спам].mkv
Format : Matroska
File size : 4.34 GiB
Duration : 2h 11mn
Overall bit rate : 4 720 Kbps
Encoded date : UTC 2013-03-09 14:46:11
Writing application : mkvmerge v5.7.0 ('The Whirlwind') built on Jul 8 2012 20:08:51
Writing library : libebml v1.2.3 + libmatroska v1.3.0
Video
ID : 1
Format : AVC
Format/Info : Advanced Video Codec
Format profile : [email protected]
Format settings, CABAC : Yes
Format settings, ReFrames : 5 frames
Muxing mode : Container [email protected]
Codec ID : V_MPEG4/ISO/AVC
Duration : 2h 11mn
Bit rate : 3 986 Kbps
Width : 1 280 pixels
Height : 544 pixels
Display aspect ratio : 2.35:1
Frame rate : 23.976 fps
Color space : YUV
Chroma subsampling : 4:2:0
Bit depth : 8 bits
Scan type : Progressive
Bits/(Pixel*Frame) : 0.239
Stream size : 3.67 GiB (84%)
Title : Метро (2013) BDRip | HQCLUB
Writing library : x264 core 120 r2146 bcd41db
Encoding settings : cabac=1 / ref=5 / deblock=1:-3:-2 / analyse=0x3:0x113 / me=umh / subme=11 / psy=1 / psy_rd=1.00:0.00 / mixed_ref=1 / me_range=48 / chroma_me=1 / trellis=2 / 8x8dct=1 / cqm=0 / deadzone=21,11 / fast_pskip=1 / chroma_qp_offset=-4 / threads=12 / sliced_threads=0 / nr=0 / decimate=1 / interlaced=0 / bluray_compat=0 / constrained_intra=0 / bframes=9 / b_pyramid=2 / b_adapt=2 / b_bias=0 / direct=1 / weightb=1 / open_gop=0 / weightp=2 / keyint=240 / keyint_min=24 / scenecut=40 / intra_refresh=0 / rc_lookahead=40 / rc=crf / mbtree=0 / crf=17.5 / qcomp=0.60 / qpmin=0 / qpmax=69 / qpstep=4 / vbv_maxrate=62500 / vbv_bufsize=50000 / crf_max=0.0 / nal_hrd=none / ip_ratio=1.40 / pb_ratio=1.30 / aq=1:0.70
Language : Russian
Audio
ID : 2
Format : AC-3
Format/Info : Audio Coding 3
Mode extension : CM (complete main)
Codec ID : A_AC3
Duration : 2h 11mn
Bit rate mode : Constant
Bit rate : 640 Kbps
Channel(s) : 6 channels
Channel positions : Front: L C R, Side: L R, LFE
Sampling rate : 48.0 KHz
Bit depth : 16 bits
Stream size : 603 MiB (14%)
Title : Оригинал AC3 5.1 @ 640 kbps
Language : Russian
Menu
00:00:00.000 : en:00:00:00.000
00:06:11.121 : en:00:06:11.121
00:13:05.284 : en:00:13:05.284
00:19:35.758 : en:00:19:35.758
00:26:29.129 : en:00:26:29.129
00:33:53.406 : en:00:33:53.406
00:41:08.883 : en:00:41:08.883
00:50:48.712 : en:00:50:48.712
00:56:44.067 : en:00:56:44.067
01:04:35.914 : en:01:04:35.914
01:11:52.808 : en:01:11:52.808
01:19:04.114 : en:01:19:04.114
01:26:17.422 : en:01:26:17.422
01:34:31.791 : en:01:34:31.791
01:41:21.242 : en:01:41:21.242
01:48:46.186 : en:01:48:46.186
01:56:28.607 : en:01:56:28.607
02:06:42.553 : en:02:06:42.553

Знаете ли Вы, что

? Для съёмок фильма был сооружён 117-метровый туннель в натуральную величину, и использовались настоящие вагоны метро.
? В октябре 2011 года съемки проходили в Самаре. Почти две недели Самарский метрополитен играл роль Московского. Съемки велись на строящейся станции «Алабинская», действующей «Московской» и в депо. Метрополитен Самары даже выделил съемочной группе специальный поезд, предназначенный именно для съемок картины.
? В роли собаки Тявки снимался метис Петр, наполовину йорк, наполовину миниатюрный пинчер.
? Фильм снят по мотивам одноименного романа Дмитрия Сафонова.

Скриншоты





Последний раз редактировалось: yusupbay9595 (2013-03-14 21:24), всего редактировалось 1 раз

Создавать темы 13-Мар-2013 18:26

[Профиль]  [ЛС] 

Robot-IX

Стаж: 5 лет 4 месяца

Сообщений: 223

Симпатии: 9

yusupbay9595, да ! +
P.S.
молодец hakker_92! нажал на кнопочку и всех свистнул...! ))
а то не проверенный релиз и качать не хотелось...(( каким бы он не был!


Последний раз редактировалось: Robot-IX (2013-03-15 21:10), всего редактировалось 3 раз(а)

Создавать темы 13-Мар-2013 20:16

[Профиль]  [ЛС] 

Listopad

Стаж: 4 года 7 месяцев

Сообщений: 7

Жаль что посмотрел уже((( не думал что так быстро в таком качестве появится, но качаю по любому, в коллекцию!!!)))

Создавать темы 13-Мар-2013 21:48

[Профиль]  [ЛС] 

vitya9608

Стаж: 4 года 9 месяцев

Сообщений: 26

Симпатии: 1

yusupbay9595, спасибо за фильм

_________________
Подпись отключена за нарушение правил форума

Создавать темы 14-Мар-2013 15:51

[Профиль]  [ЛС] 

anvarsabina

Стаж: 4 года 10 месяцев

Сообщений: 30

Симпатии: 2

дайте скорость плиз

Создавать темы 23-Мар-2013 02:05

[Профиль]  [ЛС] 

Cupola

Стаж: 6 лет 9 месяцев

Сообщений: 31

Симпатии: 4

Чуть чуть скорости если можно. Заранее спасибо.

Создавать темы 02-Май-2013 11:17

[Профиль]  [ЛС] 
Показать сообщения:    
Ответить на тему

Текущее время: 19-Авг 10:28

Часовой пояс: UTC + 5



Вы не можете начинать темы
Вы не можете отвечать на сообщения
Вы не можете редактировать свои сообщения
Вы не можете удалять свои сообщения
Вы не можете голосовать в опросах
Вы не можете прикреплять файлы к сообщениям
Вы не можете скачивать файлы