300 спартанцев / 300 (Зак Снайдер) [2006 г., Исторический, DVDRip]

Ответить на тему
 

apachi_uz21 ®

Стаж: 5 лет 4 месяца

Сообщений: 30

Симпатии: 6

300 спартанцев / 300
Год выпуска: 2006
Жанр: Исторический
Продолжительность: 01:56:36
Перевод: английский (оригинал)
Страна: США
Режиссер: Зак Снайдер
В ролях: Джерард Батлер, Лена Хеди, Дэвид Венхэм, Винсент Риган, Родриго Санторо
Описание: В 480 г. до н. э. миллионная армия персидского царя Ксеркса начала вторжение в Грецию. Спартанский царь Леонид и его люди сбрасывают в бездонный колодец персидскую делегацию, требующую «земли и воды», что на дипломатическом языке персов означало требование покориться — со словами, что там они найдут сколько угодно и земли, и воды.
Качество: DVDRip
Формат: AVI
Видео кодек: Другой MPEG4
Аудио кодек: MPEG Audio
Видео: DivX, 620x256, 719 Kbps, 23 fps
Аудио: MP3, 112 kbps, 48 KHz

Media info

General
Complete name : 300.avi
Format : AVI
Format/Info : Audio Video Interleave
File size : 701 MiB
Duration : 1h 56mn
Overall bit rate : 841 Kbps
Writing application : VirtualDubMod 1.5.10.1 (build 2366/release)
Writing library : VirtualDubMod build 2366/release
Video #0
ID : 0
Format : MPEG-4 Visual
Format profile : Advanced [email protected]
Format settings, BVOP : 2
Format settings, QPel : No
Format settings, GMC : No warppoints
Format settings, Matrix : Default (H.263)
Codec ID : DX50
Codec ID/Hint : DivX 5
Duration : 1h 56mn
Bit rate : 719 Kbps
Width : 620 pixels
Height : 256 pixels
Display aspect ratio : 2.40:1
Frame rate : 23.976 fps
Color space : YUV
Chroma subsampling : 4:2:0
Bit depth : 8 bits
Scan type : Progressive
Compression mode : Lossy
Bits/(Pixel*Frame) : 0.189
Stream size : 600 MiB (86%)
Writing library : XviD 1.0.3 (UTC 2004-12-20)
Audio #1
ID : 1
Format : MPEG Audio
Format version : Version 1
Format profile : Layer 3
Codec ID : 55
Codec ID/Hint : MP3
Duration : 1h 56mn
Bit rate mode : Constant
Bit rate : 112 Kbps
Channel(s) : 2 channels
Sampling rate : 48.0 KHz
Compression mode : Lossy
Stream size : 93.4 MiB (13%)
Alignment : Aligned on interleaves
Interleave, duration : 42 ms (1.00 video frame)
Interleave, preload duration : 504 ms

Скриншоты






Последний раз редактировалось: apachi_uz21 (2013-03-15 16:59), всего редактировалось 2 раз(а)

Создавать темы 14-Мар-2013 23:18

[Профиль]  [ЛС] 

apachi_uz21 ®

Стаж: 5 лет 4 месяца

Сообщений: 30

Симпатии: 6

Народ есть ещё несколько фильмов без перевода, если хотите залью.
Шрэк навсегда, Геркулес, Рататуй;
Элвин и брундуки, История Рона Кларка, Брюс всемогущий.
__________

Создавать темы 14-Мар-2013 23:34

[Профиль]  [ЛС] 

kotabek

Стаж: 5 лет

Сообщений: 5

Хотим. и скорости пожалуйста.

Создавать темы 14-Мар-2013 23:39

[Профиль]  [ЛС] 

NiggaДяй

Стаж: 4 года 7 месяцев

Сообщений: 14

Симпатии: 1

Народ есть ещё несколько фильмов без перевода, если хотите залью.
Шрэк навсегда, Геркулес, Рататуй;
Элвин и брундуки, История Рона Кларка, Брюс всемогущий.
__________
о велики молим тебя залить эти фильмы

Создавать темы 15-Мар-2013 00:32

[Профиль]  [ЛС] 

victor0778

Стаж: 6 лет 8 месяцев

Сообщений: 1670

Симпатии: 142

apachi_uz21, скриншоты по размерам залейте

Создавать темы 15-Мар-2013 00:54

[Профиль]  [ЛС] 

slaiderUZ

Стаж: 5 лет 9 месяцев

Сообщений: 172

Симпатии: 6

Брюса давай

_________________
Подпись отключена за нарушение правил форума

Создавать темы 15-Мар-2013 06:11

[Профиль]  [ЛС] 

apachi_uz21 ®

Стаж: 5 лет 4 месяца

Сообщений: 30

Симпатии: 6

Брюса давай
А вот и Брюс
http://tas-ix.net/viewtopic.php?t=65940&spmode=full#seeders

Создавать темы 15-Мар-2013 20:30

[Профиль]  [ЛС] 

splinter_2011

Стаж: 5 лет

Сообщений: 9

Я обожаю исторические триллеры, это круто)


Последний раз редактировалось: splinter_2011 (2013-09-24 22:19), всего редактировалось 1 раз

Создавать темы 24-Сен-2013 22:14

[Профиль]  [ЛС] 

murodjon

Стаж: 6 лет 8 месяцев

Сообщений: 163

Симпатии: 10

Брюса давай
А вот и Брюс
http://tas-ix.net/viewtopic.php?t=65940&spmode=full#seeders
Спасибо Спасибо Спасибо!!!!!!!!!!!!!! давай еще таких пож. )))

Создавать темы 29-Сен-2013 18:01

[Профиль]  [ЛС] 

xabibcik

Стаж: 3 года 8 месяцев

Сообщений: 20

Симпатии: 1

народ пожалуйста перейдите на раздачу адски хочется посмотреть умя 90% остановилось

Создавать темы 23-Авг-2014 12:31

[Профиль]  [ЛС] 

xabibcik

Стаж: 3 года 8 месяцев

Сообщений: 20

Симпатии: 1

хелп хелп хелп на раздачу пожалуйста

Создавать темы 23-Авг-2014 13:54

[Профиль]  [ЛС] 
Показать сообщения:    
Ответить на тему

Текущее время: 17-Окт 20:10

Часовой пояс: UTC + 5



Вы не можете начинать темы
Вы не можете отвечать на сообщения
Вы не можете редактировать свои сообщения
Вы не можете удалять свои сообщения
Вы не можете голосовать в опросах
Вы не можете прикреплять файлы к сообщениям
Вы не можете скачивать файлы