Study English IELTS Preparation [2010 г.]

Ответить на тему
 

freeman9 ®

Стаж: 5 лет 1 месяц

Сообщений: 24

Симпатии: 7

Study English IELTS Preparation
Производитель: Australia Network
Год выпуска: 2010
Язык: английский
Форматы: PDF, mp4
Описание: Внимание! Курс рассчитан на уровни intermediate-advanced. Полностью на Английском языке!!!
Если вы не владеете языком в достаточной степени и не знаете что такое IELTS - этот курс не для вас.
Study English - Подготовительный курс для сдачи экзамена IELTS от Australia Network.
Данная раздача содержит:
SERIES-1 Episode 1-26 (2004г.)
SERIES-2 Episode 1-26 (2005г.)
SERIES-3 Episode 1-26 + Vocabulary Exercise (2010г.)
А также по 3 PDF к каждому эпизоду: activity, notes и transcript которые помогут процессу обучения.
Данное видео также адаптировано для просмотра на iPhone/iPod Touch.
Тест IELTS — международно–признанный языковой сертификат, который поможет Вам не только объективно оценить Ваши знания, но и использовать Ваш английский: поступить в зарубежный ВУЗ, уехать жить за границу, продвинуться по карьерной лестнице.
English:
Study English - IELTS preparation, is a series of English language programs for intermediate to advanced learners, which develops skills and strategies for both English language study and those preparing to take the IELTS test.
Each program covers a different topic and explores different aspects of the English language. Our content draws on authentic material that you can watch, read and listen to plus study notes, tips and activities for practice and consolidation.

Media Info

Format : MPEG-4
Format profile : Base Media
Codec ID : isom
Overall bit rate mode : Variable
Overall bit rate : 522 Kbps
Album : Study English
Tagged date : UTC 2010-07-27 20:59:17
Writing application : VisualHub 1.34
pcst : 1
Video
ID : 1
Format : AVC
Format/Info : Advanced Video Codec
Format profile : [email protected]
Format settings, CABAC : No
Format settings, ReFrames : 2 frames
Codec ID : avc1
Codec ID/Info : Advanced Video Coding
Duration : 9mn 31s
Bit rate : 444 Kbps
Width : 590 pixels
Height : 328 pixels
Display aspect ratio : 16:9
Frame rate mode : Constant
Frame rate : 25.000 fps
Color space : YUV
Chroma subsampling : 4:2:0
Bit depth : 8 bits
Scan type : Progressive
Bits/(Pixel*Frame) : 0.092
Stream size : 30.3 MiB (85%)
Audio
ID : 2
Format : AAC
Format/Info : Advanced Audio Codec
Format profile : LC
Codec ID : 40
Duration : 9mn 30s
Bit rate mode : Variable
Bit rate : 72.0 Kbps
Channel(s) : 2 channels
Channel positions : Front: L R
Sampling rate : 48.0 KHz
Compression mode : Lossy
Stream size : 4.89 MiB (14%)
Tagged date : UTC 2010-07-27 20:59:17

Скриншоты






Последний раз редактировалось: freeman9 (2013-03-16 18:15), всего редактировалось 2 раз(а)

Создавать темы 15-Мар-2013 20:39

[Профиль]  [ЛС] 

davrdj

Стаж: 5 лет 1 месяц

Сообщений: 6

молодец. материал отличный. +1

Создавать темы 29-Мар-2013 13:08

[Профиль]  [ЛС] 

davron1997

Стаж: 5 лет 10 месяцев

Сообщений: 26

Симпатии: 31

я все его не могу скачать раздающих мало... 2 месяц и все 3.5%((( я буду постоянно на раздаче сиди дольше на раздаче если можно ночами даже готов качать

Создавать темы 24-Мар-2015 19:55

[Профиль]  [ЛС] 
Показать сообщения:    
Ответить на тему

Текущее время: 25-Ноя 04:53

Часовой пояс: UTC + 5



Вы не можете начинать темы
Вы не можете отвечать на сообщения
Вы не можете редактировать свои сообщения
Вы не можете удалять свои сообщения
Вы не можете голосовать в опросах
Вы не можете прикреплять файлы к сообщениям
Вы не можете скачивать файлы