План Б / The Back-Up Plan (Алан Пол) [2010 г., Комедия/Мелодрама, HDTVRip]

Ответить на тему
 

stratum ®

Стаж: 8 лет 11 месяцев

Сообщений: 6

План Б / The Back-Up Plan
Год выпуска: 2010
Страна: USA
Жанр: Комедия/Мелодрама
Продолжительность: 01:44:09
Перевод: Профессиональный (полное дублирование)
Режиссер: Алан Пол
В ролях: Дженнифер Лопез, Алекс О`Лахлан, Михаэлла Уоткинс, Эрик Кристиан Олсен, Энтони Андерсон, Норин ДеВулф, Мелисса МакКарти, Том Босли, Мэрибет Монро, Дэннил Харрис
Описание: Каждая женщина за 30, мечтающая стать матерью, должна иметь «План Б», и у одинокой Зои такой план был. Отчаявшись встретить своего суженого, она прибегла к деликатной процедуре по искусственному оплодотворению. И в тот самый день, когда тест на беременность показал положительный результат, она встретила Стэна. Вот только как рассказать ему о своём «интересном положении» и при этом не разрушить только что завязавшиеся отношения.

MediaInfo

Complete name : Back-up Plan.2010.BD.Rip.1080p.h264.Rus.Eng.mkv
Format : Matroska
File size : 8.26 GiB
Duration : 1h 44mn
Overall bit rate : 11.3 Mbps
Encoded date : UTC 2010-08-04 11:41:51
Writing application : mkvmerge v3.4.0 ('Rapunzel') built on May 15 2010 09:38:20
Writing library : libebml v0.8.0 + libmatroska v0.9.0
Video
ID : 1
Format : AVC
Format/Info : Advanced Video Codec
Format profile : [email protected]
Format settings, CABAC : Yes
Format settings, ReFrames : 5 frames
Format_Settings_GOP : M=1, N=16
Muxing mode : Container [email protected]
Codec ID : V_MPEG4/ISO/AVC
Duration : 1h 44mn
Bit rate : 9 160 Kbps
Nominal bit rate : 9 412 Kbps
Width : 1 920 pixels
Height : 816 pixels
Display aspect ratio : 2.35:1
Frame rate : 23.976 fps
Resolution : 8 bits
Colorimetry : 4:2:0
Scan type : Progressive
Bits/(Pixel*Frame) : 0.244
Stream size : 6.67 GiB (81%)
Writing library : x264 core 104 r1677 19df41a
Encoding settings : cabac=1 / ref=5 / deblock=1:0:0 / analyse=0x3:0x113 / me=umh / subme=7 / psy=1 / psy_rd=1.00:0.00 / mixed_ref=1 / me_range=16 / chroma_me=1 / trellis=1 / 8x8dct=1 / cqm=0 / deadzone=21,11 / fast_pskip=1 / chroma_qp_offset=-2 / threads=6 / sliced_threads=0 / nr=0 / decimate=1 / interlaced=0 / constrained_intra=0 / bframes=3 / b_pyramid=2 / b_adapt=1 / b_bias=0 / direct=1 / weightb=1 / open_gop=0 / weightp=2 / keyint=250 / keyint_min=23 / scenecut=40 / intra_refresh=0 / rc_lookahead=40 / rc=2pass / mbtree=1 / bitrate=9412 / ratetol=1.0 / qcomp=0.60 / qpmin=10 / qpmax=51 / qpstep=4 / cplxblur=20.0 / qblur=0.5 / ip_ratio=1.40 / aq=1:1.00
Language : English
Audio #1
ID : 2
Format : AC-3
Format/Info : Audio Coding 3
Format_Settings_ModeExtension : CM (complete main)
Codec ID : A_AC3
Duration : 1h 44mn
Bit rate mode : Constant
Bit rate : 448 Kbps
Channel(s) : 6 channels
Channel positions : Front: L C R, Side: L R, LFE
Sampling rate : 48.0 KHz
Stream size : 334 MiB (4%)
Title : Dublyazh AC3 5.1 448 kbps
Language : Russian
Audio #2
ID : 3
Format : DTS
Format/Info : Digital Theater Systems
Codec ID : A_DTS
Duration : 1h 44mn
Bit rate mode : Constant
Bit rate : 1 510 Kbps
Channel(s) : 6 channels
Channel positions : Front: L C R, Side: L R, LFE
Sampling rate : 48.0 KHz
Resolution : 24 bits
Stream size : 1.10 GiB (13%)
Title : DTS 5.1 1536 kbps
Language : English
Text #1
ID : 4
Format : UTF-8
Codec ID : S_TEXT/UTF8
Codec ID/Info : UTF-8 Plain Text
Language : English
Text #2
ID : 5
Format : UTF-8
Codec ID : S_TEXT/UTF8
Codec ID/Info : UTF-8 Plain Text
Title : SDH
Language : English
Качество: HDTVRip
Формат: MKV
Видео кодек: H.26x
Аудио кодек: AC3
Видео: 1920x816, 9412 kbps, 23.976 fps
Аудио: Русский AC3 5.1, 48 KHz, 448 kbps / Английский DTS 5.1, 48 KHz, 1536 kbps

Скрины







Последний раз редактировалось: stratum (2010-08-28 19:06), всего редактировалось 1 раз

Создавать темы 27-Авг-2010 13:01

[Профиль]  [ЛС] 

tima89_21

Стаж: 7 лет 8 месяцев

Сообщений: 93

stratum сп буду качать ay ay

Создавать темы 27-Авг-2010 13:04

[Профиль]  [ЛС] 

stratum ®

Стаж: 8 лет 11 месяцев

Сообщений: 6

Создавать темы 27-Авг-2010 13:14

[Профиль]  [ЛС] 

KRONE

Стаж: 7 лет 11 месяцев

Сообщений: 22

Зачем цитировать релиз bm

Создавать темы 27-Авг-2010 13:15

[Профиль]  [ЛС] 

rbhome

Стаж: 8 лет 11 месяцев

Сообщений: 134

Симпатии: 5

кто скачал вернитесь!

Создавать темы 05-Янв-2011 12:10

[Профиль]  [ЛС] 
Показать сообщения:    
Ответить на тему

Текущее время: 16-Дек 14:15

Часовой пояс: UTC + 5



Вы не можете начинать темы
Вы не можете отвечать на сообщения
Вы не можете редактировать свои сообщения
Вы не можете удалять свои сообщения
Вы не можете голосовать в опросах
Вы не можете прикреплять файлы к сообщениям
Вы не можете скачивать файлы