Пакт / The Pact (Николас МакКарти) [2012, США / Preferred Content, Ужасы, триллер, детектив, HDRip][Лицензия]

Ответить на тему
 

Suxrob89 ®

Стаж: 7 лет

Сообщений: 933

Симпатии: 564

--Пакт / The Pact-- Страна: США / Preferred Content
Жанр: Ужасы, триллер, детектив
Год выпуска: 2012
Продолжительность: 01:28:52-Перевод: Профессиональный (многоголосый) [Лицензия]
Cубтитры: нет
Оригинальная аудиодорожка: нет-Режиссер: Николас МакКарти / Nicholas McCarthy-В ролях: Кейти Лотц, Кэтлин Роуз Перкинс, Хейли Хадсон, Сэмюэл Болл, Марк Стегер, Агнес Бракнер, Каспер Ван Дин, Анджини Танеджа Азар, Бо Баррет, Дакота Брайт-Описание: После смерти матери сестры Николь и Энни неохотно возвращаются в дом своего детства. Во время пребывания там, ночью, сестры чувствуют таинственное присутствие чего-то или кого-то: пугающий шум, движение объектов. Девушкам предстоит пережить несколько часов кошмара, чтобы узнать об ужасном прошлом их матери…- -Качество видео: HDRip
Формат видео: AVI
Видео: 720x384 (1.88:1), 23.976 fps, XviD build 50 ~1762 kbps avg, 0.27 bit/pixel
Аудио: 48 kHz, AC3 Dolby Digital, 3/2 (L,C,R,l,r) + LFE ch, ~448 kbps-

MediaInfo

Общее
Формат : AVI
Формат/Информация : Audio Video Interleave
Размер файла : 1,38 Гбайт
Продолжительность : 1 ч. 28 м.
Общий поток : 2220 Кбит/сек
Название фильма : Pact.2012.P.HDRip
Жанр : Horror | Mystery | Thriller
Программа кодирования : VirtualDubMod 1.5.10.2 (build 2540/release)
Формат оригинала/Имя : Movie
Видео
Идентификатор : 0
Формат : MPEG-4 Visual
Профиль формата : Advanced [email protected]
Параметр BVOP формата : 1
Параметр QPel формата : Нет
Параметр GMC формата : Без точки перехода
Параметр матрицы формата : Выборочная
Идентификатор кодека : XVID
Идентификатор кодека/Подсказка : XviD
Продолжительность : 1 ч. 28 м.
Битрейт : 1763 Кбит/сек
Ширина : 720 пикселей
Высота : 384 пикселя
Соотношение сторон : 1,85:1
Частота кадров : 23,976 кадра/сек
Цветовое пространство : YUV
Субдискретизация насыщенности : 4:2:0
Битовая глубина : 8 бит
Тип развёртки : Прогрессивная
Метод сжатия : С потерями
Бит/(Пиксели*Кадры) : 0.266
Размер потока : 1,09 Гбайт (79%)
Библиотека кодирования : XviD 1.2.1 (UTC 2008-12-04)
Аудио
Идентификатор : 1
Формат : AC-3
Формат/Информация : Audio Coding 3
Расширение режима : CM (complete main)
Параметр Endianness формата : Big
Идентификатор кодека : 2000
Продолжительность : 1 ч. 28 м.
Вид битрейта : Постоянный
Битрейт : 448 Кбит/сек
Каналы : 6 каналов
Расположение каналов : Front: L C R, Side: L R, LFE
Частота : 48,0 КГц
Битовая глубина : 16 бит
Метод сжатия : С потерями
Размер потока : 285 Мбайт (20%)
Выравнивание : Разделение по промежуткам
Продолжительность промежутка : 42 мс. (1,00 видеокадр)
Время предзагрузки промежутка : 500 мс.

Скриншоты

Создавать темы 16-Мар-2013 11:22

[Профиль]  [ЛС] 

Davrick

Стаж: 4 года 5 месяцев

Сообщений: 37

Эйййй дайте скорости PLEASE!

Создавать темы 16-Мар-2013 14:08

[Профиль]  [ЛС] 

Azizaaaaa

Стаж: 4 года

Сообщений: 55

Симпатии: 1

как фильм? кто нибудь пожалуйста отпишитесь))))

Создавать темы 26-Окт-2013 12:45

[Профиль]  [ЛС] 

star__scrim

Стаж: 7 лет 6 месяцев

Сообщений: 41

Azizaaaaa, УГ

Создавать темы 26-Окт-2013 19:48

[Профиль]  [ЛС] 

air6797

Стаж: 4 года 9 месяцев

Сообщений: 114

Симпатии: 1

как фильм? кто нибудь пожалуйста отпишитесь))))
Не советую !!!!

Создавать темы 26-Окт-2013 20:23

[Профиль]  [ЛС] 

Azizaaaaa

Стаж: 4 года

Сообщений: 55

Симпатии: 1

спасибо за отзывы ребята)))))

Создавать темы 28-Окт-2013 19:50

[Профиль]  [ЛС] 

Liza-super

Стаж: 3 года 9 месяцев

Сообщений: 14

Пожалуйста, помогите скачать фильм! уже неделю качаю нет и пятидесяти процентов((
А так хочется ужастик посмотреть!!!!!!!!!! ПЛИЗЗЗЗЗЗЗЗЗЗ

Создавать темы 14-Ноя-2013 13:41

[Профиль]  [ЛС] 

Liza-super

Стаж: 3 года 9 месяцев

Сообщений: 14

почему не раздаётся?! качаю уже неделю. Скорости вообще нет. Я что одна качаю????????

Создавать темы 16-Ноя-2013 21:31

[Профиль]  [ЛС] 

Watch Dogs

Стаж: 1 год 11 месяцев

Сообщений: 54

Симпатии: 16

дайте скорости ПЛИИИИИИЗ
уже давно не могу скачать , встаньте на раздачу

Создавать темы 11-Дек-2015 20:18

[Профиль]  [ЛС] 
Показать сообщения:    
Ответить на тему

Текущее время: 21-Авг 00:23

Часовой пояс: UTC + 5



Вы не можете начинать темы
Вы не можете отвечать на сообщения
Вы не можете редактировать свои сообщения
Вы не можете удалять свои сообщения
Вы не можете голосовать в опросах
Вы не можете прикреплять файлы к сообщениям
Вы не можете скачивать файлы