Премия видео игр 2012 / Video Games Awards 2012 (Mark Burnett) [2012 г., ТВ-шоу, церемония вручения премии, TVRip]

Ответить на тему
 

Nosir ®

Стаж: 4 года 8 месяцев

Сообщений: 15

Премия Видео Игр 2012 / Video Games Awards 2012- Год выпуска: 2012
Страна: США
Жанр: ТВ-шоу, церемония вручения премии
Продолжительность: 1:35:08
Перевод: Профессиональный (Полное Дублирование)
-Режиссер: Марк Бурнет
В ролях: Самуэл Л Жаксон, Захари Леви, Жессика Алба, Жек Блек, Лиинкин Парк, Снооп дог, Зое Салдана.-Описание: Video Games Awards ежегодная премия вручаемая за достижения в игровой индустрии.-Качество: TVRip
Формат: AVI
Видео кодек: MPEG-TS
Аудио кодек: MP3
Видео: MPEG2 Video 720x576 (4:3) 25fps 2592 Kbps [Video]
Аудио: MPEG Audio 48000Hz stereo 192kbps [Audio]

MediaInfo

General
Complete name : C:\Documents and Settings\Мои документы\Downloads\The.2012.Video Game Awards 2012.avi
Format : MPEG-TS
Format profile : No PAT/PMT
File size : 1.95 GiB
Duration : 1h 35mn
Overall bit rate mode : Variable
Overall bit rate : 2 930 Kbps
Video
ID : 201 (0xC9)
Format : MPEG Video
Format version : Version 2
Format profile : [email protected]
Format settings, BVOP : Yes
Format settings, Matrix : Custom
Format settings, GOP : Variable
Duration : 1h 35mn
Bit rate mode : Variable
Bit rate : 2 592 Kbps
Maximum bit rate : 15.0 Mbps
Width : 720 pixels
Height : 576 pixels
Display aspect ratio : 4:3
Frame rate : 25.000 fps
Standard : PAL
Color space : YUV
Chroma subsampling : 4:2:0
Bit depth : 8 bits
Scan type : Interlaced
Scan order : Top Field First
Compression mode : Lossy
Bits/(Pixel*Frame) : 0.250
Stream size : 1.72 GiB (88%)
Audio
ID : 202 (0xCA)
Format : MPEG Audio
Format version : Version 1
Format profile : Layer 2
Duration : 1h 35mn
Bit rate mode : Constant
Bit rate : 192 Kbps
Channel(s) : 2 channels
Sampling rate : 48.0 KHz
Compression mode : Lossy
Delay relative to video : -260ms
Stream size : 131 MiB (7%)
-

Скриншоты





Последний раз редактировалось: Nosir (2013-04-17 00:03), всего редактировалось 7 раз(а)

Создавать темы 16-Мар-2013 18:01

[Профиль]  [ЛС] 

shahz

Стаж: 5 лет 7 месяцев

Сообщений: 192

Симпатии: 9

Автор перед созданием релиза обращайте внимание на раздел где постите
причём тут Премия видео игр 2012 / Video Games Awards 2012 и Фильмы за 2013 (новинки)

Создавать темы 16-Мар-2013 18:10

[Профиль]  [ЛС] 

Nosir ®

Стаж: 4 года 8 месяцев

Сообщений: 15

:of:


Последний раз редактировалось: Nosir (2013-04-16 23:30), всего редактировалось 1 раз

Создавать темы 16-Мар-2013 18:20

[Профиль]  [ЛС] 

victor0778

Стаж: 6 лет 8 месяцев

Сообщений: 1670

Симпатии: 142

Nosir, оформлять надо на кириллице
Качество: HDTVRip-?
битрейт видео?

Создавать темы 16-Мар-2013 18:23

[Профиль]  [ЛС] 

Nosir ®

Стаж: 4 года 8 месяцев

Сообщений: 15

:of:


Последний раз редактировалось: Nosir (2013-04-16 23:39), всего редактировалось 2 раз(а)

Создавать темы 16-Мар-2013 18:33

[Профиль]  [ЛС] 

x6

Стаж: 6 лет 8 месяцев

Сообщений: 171

Симпатии: 3

скорости дай

_________________
Подпись отключена за нарушение правил форума

Создавать темы 29-Мар-2013 00:10

[Профиль]  [ЛС] 

aries

Стаж: 5 лет 1 месяц

Сообщений: 2

Дай скорости

Создавать темы 25-Июн-2013 03:52

[Профиль]  [ЛС] 
Показать сообщения:    
Ответить на тему

Текущее время: 17-Окт 16:11

Часовой пояс: UTC + 5



Вы не можете начинать темы
Вы не можете отвечать на сообщения
Вы не можете редактировать свои сообщения
Вы не можете удалять свои сообщения
Вы не можете голосовать в опросах
Вы не можете прикреплять файлы к сообщениям
Вы не можете скачивать файлы