Тринадцатый этаж / 13-ый этаж / The Thirteenth Floor (Джозеф Руснак / Йозеф Руснак / Josef Rusnak) [1999, Германия, США, фантастика, триллер, BDRip-AVC] Dub + AVO + Original (Eng) + Subs (Rus, Eng)

Ответить на тему
 

Robot-IX ®

Стаж: 5 лет 8 месяцев

Сообщений: 223

Симпатии: 9

Тринадцатый этаж / 13-ый этаж / The Thirteenth Floor«Question reality. You can go there even though it doesn't exist.»- Год выпуска: 1999
Страна: Германия, США
Студия: Centropolis Film Productions
Жанр: фантастика, триллер, детектив, ...
Продолжительность: 01:40:30
Перевод:
-профессиональный (полное дублирование) - "Видеосервис"
Роли дублировали: Владимир Антоник, Ольга Голованова, Борис Кумаритов, Андрей Гриневич, Владимир Герасимов, ...
-авторский (одноголосый закадровый) Ю. Живов
Оригинальная аудиодорожка: английская
Субтитры: русские полные, английские полные
Навигация по главам: подписанные англоязычные главы-Режиссёр: Джозеф Руснак / Йозеф Руснак / Josef Rusnak-В ролях:
Крэйг Бирко (Douglas Hall / John Ferguson / David), Гретхен Мол (Jane Fuller / Natasha Molinaro), Армин Мюллер-Шталь (Hannon Fuller / Grierson), Винсент Д'Онофрио (Jason Whitney / Jerry Ashton), Деннис Хейсбёрт (Detective Larry McBain), Стивен Шуб (Detective Zev Bernstein)-Описание:
На тринадцатом этаже компьютерной корпорации была разработана совершенная модель виртуальной реальности, создание которой повлекло за собой цепь таинственных убийств. Разгадать загадку можно, лишь погрузившись в иное измерение, где может быть ответ на многие вопросы, а может быть — страшная нереальность…
Описание №2:
Команда ученых создает суперкомпьютер, способный полностью симулировать реальный мир на замкнутом его участке. Ханон Фуллер, отец-основатель проекта, восстанавливает внутри машины город своего детства, Лос-Анджелес 1937-го года. Когда человек подключается к такому миру, его разум занимает тело одного из обитателей мира, до того самостоятельного. После того же, как разум-гость покидает тело, обитатель симуляции просыпается, и продолжает жить ни о чём не подозревая. Персонажи симуляции считают себя абсолютно реальными — оставаясь при этом компьютерными моделями. Загадки возникают когда Фуллер ночью звонит главному герою, участнику проекта Дагласу Холлу, и просит срочно приехать, чтобы узнать некую очень важную информацию касательно симуляции мира, однако их встреча не состоится. Утром когда Холл просыпается, на его автоответчике детектив из полиции просит с ним связаться чтобы прояснить обстоятельства смерти Фуллера. Единственная зацепка Холла — бар в виртуальном Лос-Анджелесе, где Фуллер оставил Холлу личное письмо…-Доп. информация:
IMDb: 6.80/10
КиноПоиск: 7.692/10
MPAA: R - лицам до 17 лет обязательно присутствие родителей или взрослого

Знаете ли вы что...

  • «Тринадцатый этаж» вышел на экраны одновременно со знаменитой «Матрицей» братьев Вачовски, но на ее фоне оказался практически незамеченным.
  • В 2000-ом году картина номинировалась на премию «Сатурн» (Saturn Award) в категории «лучший научно-фантастический фильм».
  • Картина является экранизацией повести американского писателя Дэниела Фрэнсиса Галуйе (Daniel Francis Galouye, 1920—1976) «Симулакрон-3» (Simulacron-3), который был переиздан в Германии как «13-ый этаж» (The 13th Floor). Также частично положен в основу первый из серии рассказов Станислава Лема «Из воспоминаний Ийона Тихого». Практически идентичный сюжет имеет фильм Райнера Вернера Фассбиндера Мир на проводе / Welt am Draht (ТВ) 1973 года.
  • Роман «Симулакрон-3» был впервые опубликован в США в 1964 году и является одним из самых первых литературных описаний виртуальной реальности.
  • В виртуальном 1937 году Фуллер упоминает первую мировую войну. Однако в 1937 году, когда еще не было второй мировой войны, первая мировая война называлась иначе — великая война. Тем не менее, это можно считать ошибкой не создателей фильма, а создателей программы, имитирующей Лос-Анджелес 1937 года. Ряд других анахронизмов виртуального Лос-Анджелеса — например, слишком новые деньги и патрульная машина, — также можно воспринимать как ошибки программирования.

Награды и номинации

Сатурн, 2000 год
Номинации (1):
* Лучший научно-фантастический фильм
-Качество: BDRip-AVC
Формат: MKV
Видео кодек: H.264
Аудио кодек: AС3
Видео: H.264, 1224x510, 23.976 fps, ~3878 kbps, Бит/(Пиксели*Кадры): 0.253
Аудио №1: Русский, AC3, 3/2 (L,C,R,l,r) + LFE ch, 48 kHz, 448 kbps | Полное дублирование
Аудио №2: Русский, AC3, 3/2 (L,C,R,l,r) + LFE ch, 48 kHz, 448 kbps | AVO Ю. Живов
Аудио №3: Английский, AC3, 3/2 (L,C,R,l,r) + LFE ch, 48 kHz, 448 kbps | Оригинал
Субтитры №1: Русские, SRT
Субтитры №2: Английские, SRT
Работа с главами: есть/16 | Англ. яз-

MediaInfo

General
Unique ID : 224692943390534349204944199397811850384 (0xA90A496B846CF959BEAE71A471868C90)
Complete name : D:\Torent\13-th_Floor_1999_BDRip-AVC.mkv
Format : Matroska
Format version : Version 4 / Version 2
File size : 3.67 GiB
Duration : 1h 40mn
Overall bit rate : 5 225 Kbps
Movie name : Тринадцатый этаж / The Thirteenth Floor (1999) BDRip-AVC
Encoded date : UTC 2013-03-17 18:00:27
Writing application : mkvmerge v6.0.0 ('Coming Up For Air') built on Jan 20 2013 09:52:00
Writing library : libebml v1.3.0 + libmatroska v1.4.0
Video
ID : 1
Format : AVC
Format/Info : Advanced Video Codec
Format profile : [email protected]
Format settings, CABAC : Yes
Format settings, ReFrames : 11 frames
Codec ID : V_MPEG4/ISO/AVC
Duration : 1h 40mn
Bit rate : 3 777 Kbps
Width : 1 224 pixels
Height : 510 pixels
Display aspect ratio : 2.40:1
Frame rate : 23.976 fps
Color space : YUV
Chroma subsampling : 4:2:0
Bit depth : 8 bits
Scan type : Progressive
Bits/(Pixel*Frame) : 0.252
Stream size : 2.65 GiB (72%)
Title : Тринадцатый этаж / The Thirteenth Floor (1999) BDRip-AVC
Writing library : x264 core 125 r2200 999b753
Encoding settings : cabac=1 / ref=11 / deblock=1:-2:-2 / analyse=0x3:0x133 / me=umh / subme=11 / psy=1 / psy_rd=1.00:0.06 / mixed_ref=1 / me_range=32 / chroma_me=1 / trellis=2 / 8x8dct=1 / cqm=0 / deadzone=21,11 / fast_pskip=1 / chroma_qp_offset=-3 / threads=3 / lookahead_threads=1 / sliced_threads=0 / nr=0 / decimate=1 / interlaced=0 / bluray_compat=0 / constrained_intra=0 / bframes=14 / b_pyramid=2 / b_adapt=2 / b_bias=0 / direct=1 / weightb=1 / open_gop=0 / weightp=2 / keyint=240 / keyint_min=23 / scenecut=40 / intra_refresh=0 / rc_lookahead=60 / rc=crf / mbtree=0 / crf=18.0 / qcomp=0.65 / qpmin=0 / qpmax=51 / qpstep=4 / vbv_maxrate=50000 / vbv_bufsize=62500 / crf_max=0.0 / nal_hrd=none / ip_ratio=1.40 / pb_ratio=1.30 / aq=2:0.95
Language : English
Default : Yes
Forced : No
Matrix coefficients : BT.709-5, BT.1361, IEC 61966-2-4 709, SMPTE RP177
Audio #1
ID : 2
Format : AC-3
Format/Info : Audio Coding 3
Mode extension : CM (complete main)
Format settings, Endianness : Big
Codec ID : A_AC3
Duration : 1h 40mn
Bit rate mode : Constant
Bit rate : 448 Kbps
Channel(s) : 6 channels
Channel positions : Front: L C R, Side: L R, LFE
Sampling rate : 48.0 KHz
Bit depth : 16 bits
Compression mode : Lossy
Stream size : 322 MiB (9%)
Title : AC3 5.1 @ 448 kbps - Дубляж
Language : Russian
Default : Yes
Forced : No
Audio #2
ID : 3
Format : AC-3
Format/Info : Audio Coding 3
Mode extension : CM (complete main)
Format settings, Endianness : Big
Codec ID : A_AC3
Duration : 1h 40mn
Bit rate mode : Constant
Bit rate : 448 Kbps
Channel(s) : 6 channels
Channel positions : Front: L C R, Side: L R, LFE
Sampling rate : 48.0 KHz
Bit depth : 16 bits
Compression mode : Lossy
Stream size : 322 MiB (9%)
Title : AC3 5.1 @ 448 kbps - AVO Ю. Живов
Language : Russian
Default : No
Forced : No
Audio #3
ID : 4
Format : AC-3
Format/Info : Audio Coding 3
Mode extension : CM (complete main)
Format settings, Endianness : Big
Codec ID : A_AC3
Duration : 1h 40mn
Bit rate mode : Constant
Bit rate : 448 Kbps
Channel(s) : 6 channels
Channel positions : Front: L C R, Side: L R, LFE
Sampling rate : 48.0 KHz
Bit depth : 16 bits
Compression mode : Lossy
Stream size : 322 MiB (9%)
Title : AC3 5.1 @ 448 kbps - Оригинал
Language : English
Default : No
Forced : No
Text #1
ID : 5
Format : UTF-8
Codec ID : S_TEXT/UTF8
Codec ID/Info : UTF-8 Plain Text
Title : Полные
Language : Russian
Default : No
Forced : No
Text #2
ID : 6
Format : UTF-8
Codec ID : S_TEXT/UTF8
Codec ID/Info : UTF-8 Plain Text
Title : Полные
Language : English
Default : No
Forced : No
Menu
00:00:00.000 : en:Start
00:06:51.702 : en:Fuller Stumbles
00:12:55.649 : en:Detective McBain
00:19:57.321 : en:Jane Fuller
00:28:39.634 : en:Jason Whitney
00:36:42.909 : en:Hall is Confronted
00:42:00.017 : en:Consciousness Transfer
00:46:25.532 : en:Download Completed
00:51:46.853 : en:Grierson's Antique Store
00:59:19.472 : en:Wilshire Grand Hotel
01:03:10.870 : en:Connection Terminated
01:09:22.032 : en:Tom Jones
01:17:07.164 : en:Deja vu
01:22:25.982 : en:Under Arrest
01:28:17.125 : en:Douglas' Alibi
01:34:09.977 : en:Grierson's Memory

x264 log

-[NoImage] x264 [info]: frame I:984 Avg QP:15.38 size: 75994
-[NoImage] x264 [info]: frame P:26324 Avg QP:16.74 size: 38851
-[NoImage] x264 [info]: frame B:117268 Avg QP:18.89 size: 15569
-[NoImage] x264 [info]: consecutive B-frames: 1.5% 1.1% 3.3% 9.0% 16.9% 42.3% 9.7% 5.6% 3.5% 1.5% 1.3% 1.7% 1.2% 0.8% 0.7%
-[NoImage] x264 [info]: mb I I16..4: 5.8% 86.4% 7.8%
-[NoImage] x264 [info]: mb P I16..4: 0.7% 17.4% 0.6% P16..4: 26.1% 35.0% 12.7% 3.0% 0.1% skip: 4.3%
-[NoImage] x264 [info]: mb B I16..4: 0.1% 0.8% 0.0% B16..8: 42.3% 24.8% 4.5% direct: 6.3% skip:21.1% L0:47.3% L1:44.6% BI: 8.1%
-[NoImage] x264 [info]: 8x8 transform intra:91.5% inter:60.6%
-[NoImage] x264 [info]: coded y,uvDC,uvAC intra: 94.9% 90.0% 79.1% inter: 39.7% 30.9% 15.5%
-[NoImage] x264 [info]: i16 v,h,dc,p: 58% 7% 9% 26%
-[NoImage] x264 [info]: i8 v,h,dc,ddl,ddr,vr,hd,vl,hu: 8% 7% 11% 10% 14% 13% 13% 12% 13%
-[NoImage] x264 [info]: i4 v,h,dc,ddl,ddr,vr,hd,vl,hu: 14% 7% 4% 8% 16% 15% 13% 11% 12%
-[NoImage] x264 [info]: i8c dc,h,v,p: 54% 17% 14% 15%
-[NoImage] x264 [info]: Weighted P-Frames: Y:5.6% UV:2.3%
-[NoImage] x264 [info]: ref P L0: 38.1% 8.1% 19.2% 8.4% 7.2% 5.1% 4.7% 2.6% 2.5% 2.0% 2.0% 0.3% 0.0%
-[NoImage] x264 [info]: ref B L0: 61.7% 14.9% 8.3% 4.5% 3.3% 2.8% 2.1% 1.4% 0.7% 0.3%
-[NoImage] x264 [info]: ref B L1: 89.6% 10.4%
-[NoImage] x264 [info]: kb/s:3878.32
-[NoImage] encoded 144576 frames, 1.06 fps, 3878.33 kb/s

Скриншоты



Последний раз редактировалось: Robot-IX (2013-03-18 21:12), всего редактировалось 4 раз(а)

Создавать темы 18-Мар-2013 19:08

[Профиль]  [ЛС] 

IP4LIFE

Стаж: 4 года 11 месяцев

Сообщений: 4

для изучения англ языка?)

Создавать темы 18-Мар-2013 19:10

[Профиль]  [ЛС] 

Robot-IX ®

Стаж: 5 лет 8 месяцев

Сообщений: 223

Симпатии: 9

НАРОД ! ВЫ делитьсь между собой скаченным. Ведь это же Ваш рейтинг !!!

Создавать темы 22-Мар-2013 12:20

[Профиль]  [ЛС] 

Javohirbek

Стаж: 6 лет 6 месяцев

Сообщений: 14

пожалуйста встаньте на раздачу.

Создавать темы 23-Окт-2014 20:09

[Профиль]  [ЛС] 

arago

Стаж: 6 лет 7 месяцев

Сообщений: 40

Симпатии: 2

дайте скачать!

Создавать темы 03-Май-2015 14:01

[Профиль]  [ЛС] 

djm3

Стаж: 6 лет 11 месяцев

Сообщений: 55

Симпатии: 7

Где оригинальный источник? на других сайтах не нашел такого размера

Создавать темы 08-Апр-2017 21:36

[Профиль]  [ЛС] 
Показать сообщения:    
Ответить на тему

Текущее время: 18-Дек 14:00

Часовой пояс: UTC + 5



Вы не можете начинать темы
Вы не можете отвечать на сообщения
Вы не можете редактировать свои сообщения
Вы не можете удалять свои сообщения
Вы не можете голосовать в опросах
Вы не можете прикреплять файлы к сообщениям
Вы не можете скачивать файлы