Телохранитель из Пекина / Defender, The / The Bodyguard From Beijing / Zhong Nan Hai bao b

Ответить на тему
 

Gomer_Front ®

Стаж: 4 года 7 месяцев

Сообщений: 86

Симпатии: 4

Телохранитель из Пекина / The Bodyguard from Beijing (The Defender)- Год выпуска: 1994-Страна: Гонконг, Eastern Productions-Жанр: Боевик, боевые искусства-Продолжительность: 01:32:51-Перевод: Авторский (Сергей Кузнецов)-Русские субтитры: есть, внешние (.srt)-Режиссер: Кори Юэнь / Corey Yuen-В ролях: Джет Ли, Кристи Чунг, Кент Чэн, Колин Чоу, Уильям Чу, Джон ДеМита, Кейт Фергюсон, Джо Ханна, Том Конкл, Дженнифер Пас-Описание:Свидетели долго не живут, как гласит жестокое правило преступного мира. Когда молодая женщина по имени Мишель Юн становится единственной очевидицей убийства, совершенного могущественным злодеем, никто не сомневался, что дни ее сочтены. Но нет правил без исключений. Нанятый другом Мишель, из Пекина прибывает таинственный телохранитель. Поначалу героиня не верит, чтo от него будет толк, однако первая же уличная перестрелка показывает, на что способен этот человек-армия. Молниеносный как атакующая кобра, ее защитник за пару секунд может нейтрализовать толпу врагов. И лишь одно может помешать ему исполнить свой профессиональный долг -внезапно нагрянувшая любовь к прекрасной Мишель…
Очередная жемчужина в коллекции фильмов непревзойденного мастера боевых искусств Джета Ли ("Легенда") - романтический боевик Кори Йена "Телохранитель из Пекина". Этот экшн-римейк американского фильма "Телохранитель" с Кевином Костнером и Уитни Хьюстон стал кассовым хитом стран азиатского региона и номинировался на высшую кинопремию Гонконга по категории "Лучшая постановка боевых сцен".-Доп. информация: 6.1/10 (1,861 votes)-Качество: DVDRip
Формат: AVI
Видео кодек: XviD
Аудио кодек: MP3, AC3
Видео: 720x400 (1.80:1), 23.976 fps, XviD build 47 ~1909 kbps avg, 0.28 bit/pixel
Аудио: Audio #1: 48 kHz, MPEG Layer 3, 2 ch, ~128.00 kbps avg Авторский (Сергей Кузнецов)
Audio: #2: 48 kHz, AC3 Dolby Digital, 2/0 (L,R) ch, ~192.00 kbps avg Оригинальный (кантонский)
-

MediaInfo

General
Complete name                            : D:\Video\Telohranitel.iz.Pekina.RUS.CANT.1994.XviD.DVDRip\Telohranitel.iz.Pekina.RUS.CANT.1994.XviD.DVDRip.avi
Format                                   : AVI
Format/Info                              : Audio Video Interleave
File size                                : 1.46 GiB
Duration                                 : 1h 32mn
Overall bit rate                         : 2 244 Kbps
Movie name                               : The Bodyguard From Beijing
Director                                 : alenavova
Genre                                    : Action
Writing application                      : VirtualDubModRus 1.5.10.2 (build 2542/release)
Original source form/Name                : Movie
Copyright                                : 27.04.10
Video
ID                                       : 0
Format                                   : MPEG-4 Visual
Format profile                           : Advanced [email protected]
Format settings, BVOP                    : 1
Format settings, QPel                    : No
Format settings, GMC                     : No warppoints
Format settings, Matrix                  : Custom
Codec ID                                 : XVID
Codec ID/Hint                            : XviD
Duration                                 : 1h 32mn
Bit rate                                 : 1 910 Kbps
Width                                    : 720 pixels
Height                                   : 400 pixels
Display aspect ratio                     : 16:9
Frame rate                               : 23.976 fps
Color space                              : YUV
Chroma subsampling                       : 4:2:0
Bit depth                                : 8 bits
Scan type                                : Progressive
Compression mode                         : Lossy
Bits/(Pixel*Frame)                       : 0.277
Stream size                              : 1.24 GiB (85%)
Writing library                          : XviD 1.2.0.dev47 (UTC 2006-11-01)
Audio #1
ID                                       : 1
Format                                   : MPEG Audio
Format version                           : Version 1
Format profile                           : Layer 3
Mode                                     : Joint stereo
Mode extension                           : MS Stereo
Codec ID                                 : 55
Codec ID/Hint                            : MP3
Duration                                 : 1h 32mn
Bit rate mode                            : Constant
Bit rate                                 : 128 Kbps
Channel(s)                               : 2 channels
Sampling rate                            : 48.0 KHz
Compression mode                         : Lossy
Stream size                              : 85.0 MiB (6%)
Alignment                                : Split accross interleaves
Interleave, duration                     : 42 ms (1.00 video frame)
Interleave, preload duration             : 500 ms
Audio #2
ID                                       : 2
Format                                   : AC-3
Format/Info                              : Audio Coding 3
Mode extension                           : CM (complete main)
Format settings, Endianness              : Big
Codec ID                                 : 2000
Duration                                 : 1h 32mn
Bit rate mode                            : Constant
Bit rate                                 : 192 Kbps
Channel(s)                               : 2 channels
Channel positions                        : Front: L R
Sampling rate                            : 48.0 KHz
Bit depth                                : 16 bits
Compression mode                         : Lossy
Stream size                              : 128 MiB (9%)
Alignment                                : Split accross interleaves
Interleave, duration                     : 42 ms (1.00 video frame)
Interleave, preload duration             : 500 ms

Скриншоты










Последний раз редактировалось: Gomer_Front (2013-03-21 23:38), всего редактировалось 6 раз(а)

Создавать темы 20-Мар-2013 10:21

[Профиль]  [ЛС] 

Baha0019

Стаж: 5 лет 1 месяц

Сообщений: 6

спасибо. классный фильм

Создавать темы 20-Мар-2013 10:36

[Профиль]  [ЛС] 

villa-1996

Стаж: 5 лет 2 месяца

Сообщений: 22

Симпатии: 1

Gomer_Front, СпАсибо за фильм! В детстве просмотрил этот фильм

Создавать темы 20-Мар-2013 11:13

[Профиль]  [ЛС] 

ZeroX

Стаж: 5 лет 5 месяцев

Сообщений: 146

Симпатии: 3

Хороший фильм, жаль перевода нет нормального.

Создавать темы 20-Мар-2013 11:56

[Профиль]  [ЛС] 

Оскар

Стаж: 4 года 6 месяцев

Сообщений: 15

Gomer_Front, Спасибо за Фильм

Создавать темы 20-Мар-2013 13:03

[Профиль]  [ЛС] 

Baha0019

Стаж: 5 лет 1 месяц

Сообщений: 6

когда раздача будет. дайте раздачу и скорость

Создавать темы 20-Мар-2013 14:25

[Профиль]  [ЛС] 

baxa_1818

Стаж: 5 лет 3 месяца

Сообщений: 62

Симпатии: 3

Спасибо за Фильм

Создавать темы 20-Мар-2013 20:19

[Профиль]  [ЛС] 

Baha0019

Стаж: 5 лет 1 месяц

Сообщений: 6

СКОРОСТЬ

Создавать темы 22-Мар-2013 18:24

[Профиль]  [ЛС] 

Asadovdiyor

Стаж: 5 лет 7 месяцев

Сообщений: 192

народ если кто может залейте пжс фильм Чёрная маска с jet lee

Создавать темы 19-Апр-2013 23:26

[Профиль]  [ЛС] 

Bakhadur

Стаж: 4 года 5 месяцев

Сообщений: 1

Симпатии: 2

Хороший фильм, жаль перевода нет нормального.
http://tas-ix.net/viewtopic.php?t=73474

Создавать темы 28-Июн-2013 09:53

[Профиль]  [ЛС] 
Показать сообщения:    
Ответить на тему

Текущее время: 22-Авг 14:19

Часовой пояс: UTC + 5



Вы не можете начинать темы
Вы не можете отвечать на сообщения
Вы не можете редактировать свои сообщения
Вы не можете удалять свои сообщения
Вы не можете голосовать в опросах
Вы не можете прикреплять файлы к сообщениям
Вы не можете скачивать файлы