Это Хорошо / This Is Horosho (Виталий Голованов / Vitaly Golovanov) – #180-207 Видеообзоры, юмор [2013 г., Видео, TVRip]

Тема закрыта
 

Amiko ®

Стаж: 4 года 8 месяцев

Сообщений: 41

Симпатии: 1

- -Год выпуска: 2013-Страна: Латвия-Жанр: Видеообзоры, юмор-Режиссер: Виталий Голованов, Сергей Федоренко, Станислав Давыдов-В ролях: Стас Давыдов, Настенька.-Продолжительность: 2:14:00-Перевод: Не требуется (Оригинал)-Описание: Очередной обзор забавных видео от Стаса Давыдова и его команды.
This is Хорошо. Наверное, самый качественный русскоязычный блог, посвящённый обзорам вирусных видео.)
«This is Хорошо» — популярное русскоязычное интернет-шоу, выпускаемое с 16 октября 2010 года в Латвии. Шоу выходит два раза в неделю — по вторникам и пятницам
-Качество: TVRip
Формат: MPEG-4
Видео: 640x352 (16:9), MPEG-4 730 Кбит/сек 25,000 fps / Бит/(Пиксели*Кадры): 0.107
Аудио: Advanced Audio Codec Russian 96.0 Kbps 2 channels / 44.1 KHz
-

Media Info

Format                         : MPEG-4
Format profile                 : Base Media
Codec ID                       : isom
File size                      : 34.3 MiB
Duration                       : 6mn 34s
Overall bit rate               : 730 Kbps
Writing application            : Lavf54.22.100
Video
ID                             : 1
Format                         : AVC
Format/Info                    : Advanced Video Codec
Format profile                 : [email protected]
Format settings, CABAC         : Yes
Format settings, ReFrames      : 5 frames
Codec ID                       : avc1
Codec ID/Info                  : Advanced Video Coding
Duration                       : 6mn 34s
Bit rate                       : 600 Kbps
Width                          : 640 pixels
Height                         : 352 pixels
Display aspect ratio           : 16:9
Frame rate mode                : Constant
Frame rate                     : 25.000 fps
Color space                    : YUV
Chroma subsampling             : 4:2:0
Bit depth                      : 8 bits
Scan type                      : Progressive
Bits/(Pixel*Frame)             : 0.107
Stream size                    : 29.4 MiB (86%)
Writing library                : x264 core 125 r2 d9d2288
Encoding settings              : cabac=1 / ref=5 / deblock=1:0:0 / analyse=0x3:0x113 / me=umh / subme=8 / psy=1 / psy_rd=1.00:0.00 / mixed_ref=1 / me_range=16 / chroma_me=1 / trellis=1 / 8x8dct=1 / cqm=0 / deadzone=21,11 / fast_pskip=1 / chroma_qp_offset=-2 / threads=2 / lookahead_threads=1 / sliced_threads=0 / nr=0 / decimate=1 / interlaced=0 / bluray_compat=0 / constrained_intra=0 / bframes=3 / b_pyramid=2 / b_adapt=2 / b_bias=0 / direct=3 / weightb=1 / open_gop=0 / weightp=2 / keyint=25 / keyint_min=2 / scenecut=40 / intra_refresh=0 / rc_lookahead=25 / rc=abr / mbtree=1 / bitrate=600 / ratetol=1.0 / qcomp=0.60 / qpmin=0 / qpmax=69 / qpstep=4 / ip_ratio=1.40 / aq=1:1.00
Audio
ID                             : 2
Format                         : AAC
Format/Info                    : Advanced Audio Codec
Format profile                 : LC
Codec ID                       : 40
Duration                       : 6mn 34s
Bit rate mode                  : Constant
Bit rate                       : 96.0 Kbps
Channel(s)                     : 2 channels
Channel positions              : Front: L R
Sampling rate                  : 44.1 KHz
Compression mode               : Lossy
Delay relative to video        : 80ms
Stream size                    : 4.52 MiB (13%)

Скриншоты





Последний раз редактировалось: Amiko (2013-03-23 14:16), всего редактировалось 10 раз(а)

Создавать темы 20-Мар-2013 16:55

[Профиль]  [ЛС] 

Amiko ®

Стаж: 4 года 8 месяцев

Сообщений: 41

Симпатии: 1

Сегодня Раздача до 20:30 Сорри Уежаю в Гости Завтро С 12 00 До вечера Будет!!

Создавать темы 22-Мар-2013 17:59

[Профиль]  [ЛС] 

Amiko ®

Стаж: 4 года 8 месяцев

Сообщений: 41

Симпатии: 1

Добавлена 207 выпуск!!

Создавать темы 23-Мар-2013 14:02

[Профиль]  [ЛС] 

Mixer City

Стаж: 6 лет 10 месяцев

Сообщений: 754

Симпатии: 63

THIS IS ХОРОШО (выпуски: 0-216) [2010-2013 гг., видеоблог, развлекательная программа, WEBRip]

Создавать темы 25-Апр-2013 13:03

[Профиль]  [ЛС] 
Показать сообщения:    
Тема закрыта

Текущее время: 19-Ноя 17:22

Часовой пояс: UTC + 5



Вы не можете начинать темы
Вы не можете отвечать на сообщения
Вы не можете редактировать свои сообщения
Вы не можете удалять свои сообщения
Вы не можете голосовать в опросах
Вы не можете прикреплять файлы к сообщениям
Вы не можете скачивать файлы