Сказка о Хвосте Феи: Жрица Жар-Птицы / Fairy Tail Houou no Miko (Фудзимори Масая) [Rus] [2012 г., приключения, фэнтези, сёнэн, DVDRip]

Страницы :  1, 2  След.

Ответить на тему
 

Nosir ®

Стаж: 4 года 10 месяцев

Сообщений: 15

Сказка о Хвосте Феи: Жрица Жар-Птицы / Fairy Tail Houou no Miko - Год выпуска: 2012
Страна: Япония
Жанр: приключения, фэнтези, сёнэн
Продолжительность: Полнометражный фильм 96 минут
Перевод: Профессиональный (многоголосый, закадровый)-Режиссер: Фудзимори Масая
Автор оригинала: Масима Хиро
Трансляция: 18.08.2012
Студия: SATELIGHT | A-1 PICTURES INC. -Описание: Магией и борьбой наполнены дни гильдии волшебников Fairy Tail, выполняющих самые разнообразные заказы. Однажды к ним в гильдию поступил такой заказ: "хочу, чтоб вы поймали главаря банды грабителей, Гиса, устроившего гнездо в одном портовом городке". Команда Нацу в предвкушении высокой награды берется за эту работу. Однако из-за допущенной Люси оплошности они упускают Гиса - он уходит у них прямо из-под носа. Из-за провала задания Люси падает духом, а на обратной дороге встречает загадочную девушку Эклер и чудесную птицу Момон. По какой-то неведомой причине Эклер потеряла память, и единственное, что она помнит, это то, что она непременно должна доставить куда-то имеющийся у нее камень феникса. Ненавидящая магию Эклер и секрет, скрытый в камне феникса - эта встреча столкнет Fairy Tail с могущественным врагом, зло начнет плести вокруг них.-Озвучивание: Студия ЯСКЪЕР: Ancord, NikaLenina, Рина Гришина, Денис Строев, Сергей Пономарёв, Михаил Кшиштовский
Перевод на русский: Мария Гостюхина, Blazing Wizard, Jenia aka Zub (AniDUB)
Тайминг | Звук 5.1: Castle | Martyn-Качество: DVDRip
Формат: MPEG
Видео кодек: H.26x
Аудио кодек: AC3
Видео:MPEG4 Video (H264) 1280x720 23.976fps 3594kbps
Аудио: Dolby AC3 48000Hz 6ch 384kbps-

MediaInfo

General
Complete name : C:\Documents and Settings\HannibaL\Мои документы\Downloads\Fairy_Tail_Houou_no_Miko\[AniDub]_Fairy_Tail_Houou_no_Miko_[Rus]_[DVDRip720p_h264_Ac3]_[MVO].mp4
Format : MPEG-4
Format profile : Base Media
Codec ID : isom
File size : 2.39 GiB
Duration : 1h 26mn
Overall bit rate mode : Variable
Overall bit rate : 3 981 Kbps
Encoded date : UTC 2013-03-12 10:38:41
Tagged date : UTC 2013-03-12 10:38:41
Writing application : Yamb 2.1.0.0 [http://yamb.unite-video.com]
Video
ID : 1
Format : AVC
Format/Info : Advanced Video Codec
Format profile : High [email protected]
Format settings, CABAC : Yes
Format settings, ReFrames : 5 frames
Codec ID : avc1
Codec ID/Info : Advanced Video Coding
Duration : 1h 26mn
Bit rate mode : Variable
Bit rate : 3 595 Kbps
Maximum bit rate : 9 520 Kbps
Width : 1 280 pixels
Height : 720 pixels
Display aspect ratio : 16:9
Frame rate mode : Constant
Frame rate : 23.976 fps
Color space : YUV
Chroma subsampling : 4:2:0
Bit depth : 10 bits
Scan type : Progressive
Bits/(Pixel*Frame) : 0.163
Stream size : 2.16 GiB (90%)
Writing library : x264 core 130 r2273 b3065e6
Encoding settings : cabac=1 / ref=6 / deblock=1:-3:-3 / analyse=0x3:0x133 / me=umh / subme=10 / psy=1 / psy_rd=0.85:0.00 / mixed_ref=1 / me_range=24 / chroma_me=1 / trellis=2 / 8x8dct=1 / cqm=1 / deadzone=21,11 / fast_pskip=1 / chroma_qp_offset=-4 / threads=8 / lookahead_threads=1 / sliced_threads=0 / nr=0 / decimate=1 / interlaced=0 / bluray_compat=1 / constrained_intra=0 / bframes=3 / b_pyramid=1 / b_adapt=2 / b_bias=0 / direct=3 / weightb=1 / open_gop=1 / weightp=1 / keyint=240 / keyint_min=1 / scenecut=40 / intra_refresh=0 / rc_lookahead=60 / rc=crf / mbtree=1 / crf=18.0 / qcomp=0.74 / qpmin=6 / qpmax=32 / qpstep=4 / vbv_maxrate=9520 / vbv_bufsize=62500 / crf_max=0.0 / nal_hrd=vbr / ip_ratio=1.40 / aq=1:0.75
Encoded date : UTC 2013-03-09 11:22:28
Tagged date : UTC 2013-03-12 10:39:49
Color primaries : BT.709
Transfer characteristics : BT.709
Matrix coefficients : BT.709
Audio
ID : 2
Format : AC-3
Format/Info : Audio Coding 3
Mode extension : CM (complete main)
Format settings, Endianness : Big
Codec ID : ac-3
Duration : 1h 26mn
Bit rate mode : Constant
Bit rate : 384 Kbps
Channel(s) : 6 channels
Channel positions : Front: L C R, Side: L R, LFE
Sampling rate : 48.0 KHz
Bit depth : 16 bits
Compression mode : Lossy
Delay relative to video : 83ms
Stream size : 236 MiB (10%)
Title : Ì
Language : Russian
Encoded date : UTC 2013-03-12 10:39:34
Tagged date : UTC 2013-03-12 10:39:49

Скриншоты



Последний раз редактировалось: Nosir (2013-04-13 21:14), всего редактировалось 5 раз(а)

Создавать темы 20-Мар-2013 23:54

[Профиль]  [ЛС] 

SNIL

Стаж: 5 лет 11 месяцев

Сообщений: 2624

Симпатии: 341

Спс! Качнём!

Создавать темы 21-Мар-2013 00:17

[Профиль]  [ЛС] 

tod-Diablo

Стаж: 5 лет 11 месяцев

Сообщений: 19

ура проверили, теперь качаем!)

Создавать темы 21-Мар-2013 13:11

[Профиль]  [ЛС] 

tod-Diablo

Стаж: 5 лет 11 месяцев

Сообщений: 19

Епт ну добавь скорость ну чуток Nosir, а то 20 Kb/s качает!

Создавать темы 21-Мар-2013 22:34

[Профиль]  [ЛС] 

SNIL

Стаж: 5 лет 11 месяцев

Сообщений: 2624

Симпатии: 341

Чтот плохо качается!

Создавать темы 22-Мар-2013 23:19

[Профиль]  [ЛС] 

tod-Diablo

Стаж: 5 лет 11 месяцев

Сообщений: 19

Чтот плохо качается!
Ага и о том же!

Создавать темы 23-Мар-2013 02:03

[Профиль]  [ЛС] 

Азиз87

Стаж: 5 лет 1 месяц

Сообщений: 752

Симпатии: 143

Кстати хотел спросить воспроизводится ли у Вас звук при проигрывании данного файла?(в медиа плеере в МУТЕ постоянно переходит у меня)?

Создавать темы 23-Мар-2013 11:21

[Профиль]  [ЛС] 

SNIL

Стаж: 5 лет 11 месяцев

Сообщений: 2624

Симпатии: 341

Азиз87, Не сваливой пож с раздачи!

Создавать темы 23-Мар-2013 18:48

[Профиль]  [ЛС] 

Азиз87

Стаж: 5 лет 1 месяц

Сообщений: 752

Симпатии: 143

Азиз87, Не сваливой пож с раздачи!
Хотел уточнить что данный релиз не был мной скачан с данного трекера и у меня есть проблемы с воспроизведением русской дорожки в этом файле поэтому с Вашей стороны не убедительны данные высказывания.

Создавать темы 23-Мар-2013 20:19

[Профиль]  [ЛС] 

SNIL

Стаж: 5 лет 11 месяцев

Сообщений: 2624

Симпатии: 341

Азиз87, Ну что жалко посидеть (если да то так и скажи! что разводиш тут)

Создавать темы 24-Мар-2013 00:34

[Профиль]  [ЛС] 

kvint

Стаж: 7 лет 10 месяцев

Сообщений: 84

Симпатии: 5

Отвратительная скачка!
Автор, ты зачем создаешь релиз, если не можешь раздать? Издеваешься, да?

Создавать темы 24-Мар-2013 15:12

[Профиль]  [ЛС] 

Nosir ®

Стаж: 4 года 10 месяцев

Сообщений: 15

Раздача ведётся по желанию автора, если кого-то это не устраивает, не качайте... брысь отсюда!!


Последний раз редактировалось: Nosir (2013-04-05 07:45), всего редактировалось 1 раз

Создавать темы 24-Мар-2013 15:23

[Профиль]  [ЛС] 

kvint

Стаж: 7 лет 10 месяцев

Сообщений: 84

Симпатии: 5

т.е. это просто твое желание, точнее не желание раздавать свою раздачу и других объективных причин нету?

Создавать темы 24-Мар-2013 16:10

[Профиль]  [ЛС] 

Nosir ®

Стаж: 4 года 10 месяцев

Сообщений: 15

kvint, всё качайте теперь норм скорость будет с торрентом проблемы были!!

Создавать темы 25-Мар-2013 14:54

[Профиль]  [ЛС] 

tod-Diablo

Стаж: 5 лет 11 месяцев

Сообщений: 19

Ну слава богу, а я то уж думал у меня только проблемы с торрентом!)

Создавать темы 25-Мар-2013 22:24

[Профиль]  [ЛС] 
Показать сообщения:    
Ответить на тему

Текущее время: 11-Дек 12:50

Часовой пояс: UTC + 5



Вы не можете начинать темы
Вы не можете отвечать на сообщения
Вы не можете редактировать свои сообщения
Вы не можете удалять свои сообщения
Вы не можете голосовать в опросах
Вы не можете прикреплять файлы к сообщениям
Вы не можете скачивать файлы