Эпик / Epic / Трейлер (Chris Wedge\) [Мультфильм, Фэнтези, Приключения, Семейный, BDRip]

Ответить на тему
 

Focus ®

Стаж: 5 лет 6 месяцев

Сообщений: 28

Симпатии: 2

Эпик / Epic / Трейлер
Жанр: Мультфильм, Фэнтези, Приключения, Семейный
Режиссер: Chris Wedge\
Роли озвучивали : Джейсон Судейкис, Стивен Тайлер, Аманда Сайфред, Питбулл, Бейонсе Ноулз, Джош Хатчерсон, Джуда Фридлендер, Колин Фаррелл, Азиз Ансари, Блейк Андерсон
Описание: Вы никогда не задумывались о том, что за порогом вашего дома, в самом обыкновенном саду, может кипеть настоящая жизнь со злодеями, храбрецами, тайнами и магией? Что злобная мерзкая паучиха творит козни всем обитателям зеленого королевства, чтобы ухоженный благоухающий сад превратился в сухой хворост да серую пыль?
Качество: BDRip
Контейнер: MKV
Формат 3D: Half OverUnder / Вертикальная анаморфная стереопара
Порядок ракурсов: левый ракурс первый
Видео кодек: h264
Аудио кодек: AC3
Видео: AVC / 1920х1080 / 24 fps / 10.2 Mbps
Аудио: Русский / AC3 / 6 ch / 448 Kbps / 48 KHz

MediaInfo

Общее
Уникальный идентификатор : 196775267943041280869792762923838149251 (0x940989BFEA1B0968B3BE6F30A8ED1283)
Полное имя : D:\Download\Epic 3D Trailer 2012 BDRip halfOU 1080p (IgorekSh).mkv
Формат : Matroska
Версия формата : Version 2
Размер файла : 181 Мбайт
Продолжительность : 2 м. 19 с.
Общий поток : 10,8 Мбит/сек
Дата кодирования : UTC 2012-12-26 05:49:28
Программа кодирования : mkvmerge v4.0.0 ('The Stars were mine') сборка от Jun 6 2010 16:18:42
Библиотека кодирования : libebml v1.0.0 + libmatroska v1.0.0
Видео
Идентификатор : 1
Формат : AVC
Формат/Информация : Advanced Video Codec
Профиль формата : [email protected]
Параметр CABAC формата : Да
Параметр ReFrames формата : 4 кадра
Идентификатор кодека : V_MPEG4/ISO/AVC
Продолжительность : 2 м. 19 с.
Битрейт : 10,2 Мбит/сек
Ширина : 1920 пикселей
Высота : 1080 пикселей
Соотношение сторон : 16:9
Режим частоты кадров : Постоянный
Частота кадров : 24,000 кадра/сек
Цветовое пространство : YUV
Субдискретизация насыщенности : 4:2:0
Битовая глубина : 8 бит
Тип развёртки : Прогрессивная
Бит/(Пиксели*Кадры) : 0.204
Размер потока : 170 Мбайт (94%)
Библиотека кодирования : x264 core 116 r2074 2641b9e
Настройки программы : cabac=1 / ref=4 / deblock=1:-3:-3 / analyse=0x3:0x113 / me=umh / subme=9 / psy=1 / psy_rd=1.00:0.15 / mixed_ref=1 / me_range=16 / chroma_me=1 / trellis=2 / 8x8dct=1 / cqm=0 / deadzone=21,11 / fast_pskip=1 / chroma_qp_offset=-3 / threads=6 / sliced_threads=0 / nr=0 / decimate=1 / interlaced=0 / bluray_compat=0 / constrained_intra=0 / bframes=6 / b_pyramid=2 / b_adapt=2 / b_bias=0 / direct=3 / weightb=1 / open_gop=0 / weightp=2 / keyint=240 / keyint_min=24 / scenecut=40 / intra_refresh=0 / rc_lookahead=60 / rc=crf / mbtree=1 / crf=18.0 / qcomp=0.60 / qpmin=0 / qpmax=69 / qpstep=4 / vbv_maxrate=40000 / vbv_bufsize=40000 / crf_max=0.0 / nal_hrd=none / frame-packing=4 / ip_ratio=1.40 / aq=1:0.70
Язык : English
Default : Нет
Forced : Нет
Аудио
Идентификатор : 2
Формат : AC-3
Формат/Информация : Audio Coding 3
Расширение режима : CM (complete main)
Параметр Endianness формата : Big
Идентификатор кодека : A_AC3
Продолжительность : 2 м. 19 с.
Вид битрейта : Постоянный
Битрейт : 448 Кбит/сек
Каналы : 6 каналов
Расположение каналов : Front: L C R, Side: L R, LFE
Частота : 48,0 КГц
Битовая глубина : 16 бит
Метод сжатия : С потерями
Размер потока : 7,47 Мбайт (4%)
Язык : Russian
Default : Да
Forced : Нет

Скриншоты



Создавать темы 21-Мар-2013 15:26

[Профиль]  [ЛС] 
Показать сообщения:    
Ответить на тему

Текущее время: 16-Дек 12:25

Часовой пояс: UTC + 5



Вы не можете начинать темы
Вы не можете отвечать на сообщения
Вы не можете редактировать свои сообщения
Вы не можете удалять свои сообщения
Вы не можете голосовать в опросах
Вы не можете прикреплять файлы к сообщениям
Вы не можете скачивать файлы