Ангел-хранитель / Schutzengel (Тиль Швайгер) [2012 г., триллер, HDRip]

Ответить на тему
 

aziz2725272 ®

Стаж: 5 лет 1 месяц

Сообщений: 158

Симпатии: 6

Ангел-хранитель / Schutzengel
Год выпуска: 2012
Страна: Германия / barefoot films, Warner Bros. Film Productions Germany
Жанр: триллер
Продолжительность: 02:12:52
Перевод: Дублированный [звук с TS]
Режиссер: Тиль Швайгер
В ролях: Тиль Швайгер, Луна Швайгер, Каролине Шух, Мориц Бляйбтрой, Хайнер Лаутербах, Райнер Бок, Херберт Кнауп, Давид Акинлойе, Фолькер Альберс, Нуман Акар
Описание: Нина, молодая девушка — сирота, неожиданно становится свидетелем убийства, совершенного богатым предпринимателем. Теперь она — большая проблема на пути бизнесмена. Девушке негде укрыться, некуда бежать. Ее спасением становится бывший солдат Макс. Отныне он ее ангел-хранитель. Чтобы остаться в живых, им нужно срочно исчезнуть…

Качество: HDRip
Формат: AVI
Видео кодек: XviD
Аудио кодек: MP3
Видео: XviD, 720x304, 1969 kb/s, 23.976 fps
Аудио: Rus/Ger: MP3, 2 ch, 128 kb/s

МИ

: Полное имя Ангел-хранитель Schutzengel (2012) BDRip 720p\Angel-Hranitel.2012.D.HDRip.2100Mb.NNM-CLU.a.avi
Формат : AVI
Формат/Информация : Audio Video Interleave
Профиль формата : OpenDML
Размер файла : 2,06 Гбайт
Продолжительность : 2 ч. 12 м.
Общий поток : 2222 Кбит/сек
Программа кодирования : VirtualDubMod 1.5.10.3 | www.virtualdub-fr.org || (build 2550/release)
Библиотека кодирования : VirtualDubMod build 2550/release
Видео
Идентификатор : 0
Формат : MPEG-4 Visual
Профиль формата : Advanced [email protected]
Параметр BVOP формата : 2
Параметр QPel формата : Нет
Параметр GMC формата : Без точки перехода
Параметр матрицы формата : Default (MPEG)
Режим смешивания : Сжатый битовый поток
Идентификатор кодека : XVID
Идентификатор кодека/Подсказка : XviD
Продолжительность : 2 ч. 12 м.
Битрейт : 1947 Кбит/сек
Ширина : 720 пикселей
Высота : 304 пикселя
Соотношение сторон : 2,35:1
Частота кадров : 23,976 кадра/сек
Цветовое пространство : YUV
Субдискретизация насыщенности : 4:2:0
Битовая глубина : 8 бит
Тип развёртки : Прогрессивная
Метод сжатия : С потерями
Бит/(Пиксели*Кадры) : 0.371
Размер потока : 1,81 Гбайт (88%)
Библиотека кодирования : XviD 1.2.1 (UTC 2008-12-04)
Аудио #1
Идентификатор : 1
Формат : MPEG Audio
Версия формата : Version 1
Профиль формата : Layer 3
Идентификатор кодека : 55
Идентификатор кодека/Подсказка : MP3
Продолжительность : 2 ч. 12 м.
Вид битрейта : Постоянный
Битрейт : 128 Кбит/сек
Каналы : 2 канала
Частота : 44,1 КГц
Метод сжатия : С потерями
Размер потока : 122 Мбайт (6%)
Выравнивание : Разделение по промежуткам
Продолжительность промежутка : 42 мс. (1,00 видеокадр)
Время предзагрузки промежутка : 500 мс.
Аудио #2
Идентификатор : 2
Формат : MPEG Audio
Версия формата : Version 1
Профиль формата : Layer 3
Режим : Joint stereo
Расширение режима : MS Stereo
Идентификатор кодека : 55
Идентификатор кодека/Подсказка : MP3
Продолжительность : 2 ч. 12 м.
Вид битрейта : Постоянный
Битрейт : 128 Кбит/сек
Каналы : 2 канала
Частота : 48,0 КГц
Метод сжатия : С потерями
Размер потока : 122 Мбайт (6%)
Выравнивание : Соединение по промежуткам
Продолжительность промежутка : 42 мс. (1,00 видеокадр)
Время предзагрузки промежутка : 504 мс.
Библиотека кодирования : LAME3.99r
Настройки программы : -m j -V 4 -q 2 -lowpass 17 -b 128

Скриншоты





Последний раз редактировалось: aziz2725272 (2013-03-21 21:59), всего редактировалось 1 раз

Создавать темы 21-Мар-2013 19:51

[Профиль]  [ЛС] 

aziz2725272 ®

Стаж: 5 лет 1 месяц

Сообщений: 158

Симпатии: 6

aziz2725272
Вы в шапке указали что качество "HDTVRip"
Ангел-хранитель / Schutzengel (Тиль Швайгер) [2012 г., триллер, HDTVRip]-А в самом релизе указали:
Качество: HDRip-Определитесь...
sorry

Создавать темы 21-Мар-2013 22:03

[Профиль]  [ЛС] 
Показать сообщения:    
Ответить на тему

Текущее время: 25-Ноя 03:16

Часовой пояс: UTC + 5



Вы не можете начинать темы
Вы не можете отвечать на сообщения
Вы не можете редактировать свои сообщения
Вы не можете удалять свои сообщения
Вы не можете голосовать в опросах
Вы не можете прикреплять файлы к сообщениям
Вы не можете скачивать файлы