Гладиаторы Рима / Gladiatori di Roma (Иджинио Страффи) [2012 г., мультфильм, комедия, приключения, BDRip 1080p]

Ответить на тему
 

aziz2725272 ®

Стаж: 4 года 11 месяцев

Сообщений: 158

Симпатии: 6


Информация о фильме
Название:: Гладиаторы Рима
Оригинальное название:: Gladiatori di Roma
Выпущено: Италия / Rainbow S.r.
Год выпуска: 2012
Жанр: мультфильм, комедия, приключения
Продолжительность: 01:30:16
Озвучивание: русский дубляж [Лицензия, R5]
Режиссер: Иджинио Страффи
В ролях: Лука Арджентеро, Лаура Кьятти, Джулианна Хаф, Белен Родригес
Описание: Помпеи, и маленький Тим остается сиротой. Его спаситель, генерал Кирон, отправляет Тима в школу гладиаторов, но юный лентяй упорно не желает становиться бойцом. Повзрослев, Тим влюбляется в красавицу Лючиллу. Но чтобы покорить её сердце, нужно стать настоящим героем. Прекрасная Диана, богиня охоты и мастер по гладиаторским боям, берется за тренировки Тима перед первым боем. Но получится ли у Тима победить самого себя и стать настоящим мужчиной?

Качество: BDRip 1080p
Формат: MKV
Видео кодек: x264
Аудио кодек: AC3
Видео: AVC / [email protected] / 2 pass / 23,976 fps / 1920x816p / 9,5 Mbps / 0.253
Аудио: Аудио 1: AC3 / 5.1 ch / 448 kbps / Русский дубляж, R5
Аудио: Аудио 2: AC3 / 5.1 ch / 640 kbps / Итальянский original, BD ITA

MI

: Уникальный идентификатор : 252747935236163638240657588815479837140 (0xBE257B4FBAF2CE469103750A0E7211D4)
Полное имя :Gladiatori.di.Roma.2012.BDRip1080p(Killbrain).mkv
Формат : Matroska
Версия формата : Version 4 / Version 2
Размер файла : 6,95 Гбайт
Продолжительность : 1 ч. 34 м.
Общий поток : 10,6 Мбит/сек
Название фильма : Gladiatori di Roma (2012) by Killbrain
Дата кодирования : UTC 2013-03-18 14:16:07
Программа кодирования : mkvmerge v6.1.0 ('Old Devil') built on Mar 2 2013 14:32:37
Библиотека кодирования : libebml v1.3.0 + libmatroska v1.4.0
Видео
Идентификатор : 1
Формат : AVC
Формат/Информация : Advanced Video Codec
Профиль формата : [email protected]
Параметр CABAC формата : Да
Параметр ReFrames формата : 4 кадра
Идентификатор кодека : V_MPEG4/ISO/AVC
Продолжительность : 1 ч. 34 м.
Битрейт : 9500 Кбит/сек
Ширина : 1920 пикселей
Высота : 816 пикселей
Соотношение сторон : 2,35:1
Режим частоты кадров : Постоянный
Частота кадров : 23,976 кадра/сек
Цветовое пространство : YUV
Субдискретизация насыщенности : 4:2:0
Битовая глубина : 8 бит
Тип развёртки : Прогрессивная
Бит/(Пиксели*Кадры) : 0.253
Размер потока : 6,10 Гбайт (88%)
Заголовок : Gladiatori di Roma (2012)
Библиотека кодирования : x264 core 128 r2216 198a7ea
Настройки программы : cabac=1 / ref=4 / deblock=1:-2:-2 / analyse=0x3:0x113 / me=umh / subme=10 / psy=1 / psy_rd=1.00:0.40 / mixed_ref=1 / me_range=16 / chroma_me=1 / trellis=2 / 8x8dct=1 / cqm=0 / deadzone=21,11 / fast_pskip=1 / chroma_qp_offset=-4 / threads=3 / lookahead_threads=1 / sliced_threads=0 / nr=0 / decimate=0 / interlaced=0 / bluray_compat=0 / constrained_intra=0 / bframes=7 / b_pyramid=2 / b_adapt=2 / b_bias=0 / direct=3 / weightb=1 / open_gop=0 / weightp=2 / keyint=240 / keyint_min=23 / scenecut=40 / intra_refresh=0 / rc_lookahead=60 / rc=2pass / mbtree=0 / bitrate=9500 / ratetol=1.0 / qcomp=0.70 / qpmin=0 / qpmax=69 / qpstep=4 / cplxblur=20.0 / qblur=0.5 / vbv_maxrate=40000 / vbv_bufsize=40000 / nal_hrd=none / ip_ratio=1.40 / pb_ratio=1.30 / aq=1:0.80
Язык : Italian
Default : Да
Forced : Нет
Аудио #1
Идентификатор : 2
Формат : AC-3
Формат/Информация : Audio Coding 3
Расширение режима : CM (complete main)
Параметр Endianness формата : Big
Идентификатор кодека : A_AC3
Продолжительность : 1 ч. 34 м.
Вид битрейта : Постоянный
Битрейт : 448 Кбит/сек
Каналы : 6 каналов
Расположение каналов : Front: L C R, Side: L R, LFE
Частота : 48,0 КГц
Битовая глубина : 16 бит
Метод сжатия : С потерями
Размер потока : 301 Мбайт (4%)
Заголовок : AC3 / 5.1 ch / 448 kbps / Русский дубляж, R5
Язык : Russian
Default : Да
Forced : Нет
Аудио #2
Идентификатор : 3
Формат : AC-3
Формат/Информация : Audio Coding 3
Расширение режима : CM (complete main)
Параметр Endianness формата : Big
Идентификатор кодека : A_AC3
Продолжительность : 1 ч. 34 м.
Вид битрейта : Постоянный
Битрейт : 640 Кбит/сек
Каналы : 6 каналов
Расположение каналов : Front: L C R, Side: L R, LFE
Частота : 48,0 КГц
Битовая глубина : 16 бит
Метод сжатия : С потерями
Размер потока : 431 Мбайт (6%)
Заголовок : AC3 / 5.1 ch / 640 kbps / Итальянский origina, BD
Язык : Italian
Default : Нет
Forced : Нет
Меню
00:00:00.000 : :Chapter 01
00:05:49.807 : :Chapter 02
00:13:47.034 : :Chapter 03
00:19:00.138 : :Chapter 04
00:25:01.416 : :Chapter 05
00:31:26.426 : :Chapter 06
00:35:59.031 : :Chapter 07
00:42:21.205 : :Chapter 08
00:47:07.866 : :Chapter 09
00:52:27.227 : :Chapter 10
00:56:24.089 : :Chapter 11
01:03:29.805 : :Chapter 12
01:08:41.283 : :Chapter 13
01:13:22.648 : :Chapter 14
01:17:42.282 : :Chapter 15
01:23:48.356 : :Chapter 16

Скриншоты






Последний раз редактировалось: aziz2725272 (2013-03-22 21:58), всего редактировалось 2 раз(а)

Создавать темы 21-Мар-2013 22:55

[Профиль]  [ЛС] 

Listopad

Стаж: 4 года 8 месяцев

Сообщений: 7

НУ наконец то в нормальном качестве, не зря у меня так руки не дошли посмотреть в DVD!!! Теперь в хорошем качестве посмотрим!! Спасибо большое, только с раздачи не уходите!!!)))

Создавать темы 21-Мар-2013 23:16

[Профиль]  [ЛС] 

aziz2725272 ®

Стаж: 4 года 11 месяцев

Сообщений: 158

Симпатии: 6

ок

Создавать темы 21-Мар-2013 23:26

[Профиль]  [ЛС] 

Vika89

Стаж: 6 лет 2 месяца

Сообщений: 90

Симпатии: 3

SpS-ки, всё скорость на эТ рели3

Создавать темы 22-Мар-2013 00:00

[Профиль]  [ЛС] 

aziz2725272 ®

Стаж: 4 года 11 месяцев

Сообщений: 158

Симпатии: 6

Создавать темы 22-Мар-2013 21:55

[Профиль]  [ЛС] 

Robot-IX

Стаж: 5 лет 5 месяцев

Сообщений: 223

Симпатии: 9

SpS-ки, всё скорость на эТ рели3
Vika89 "откуда у бального здоровье...?" зато картинки ставит...! )))
aziz2725272 прежде чем просить не сваливать , надо раздать...!
ну хотя бы дня за три...! )))

Создавать темы 24-Мар-2013 21:27

[Профиль]  [ЛС] 

Vika89

Стаж: 6 лет 2 месяца

Сообщений: 90

Симпатии: 3

Vika89 "откуда у бального здоровье...?" зато картинки ставит...! )))
я видела таких картинок на заправках, на крышке бака такие клеют

Создавать темы 25-Мар-2013 02:28

[Профиль]  [ЛС] 
Показать сообщения:    
Ответить на тему

Текущее время: 22-Сен 00:34

Часовой пояс: UTC + 5



Вы не можете начинать темы
Вы не можете отвечать на сообщения
Вы не можете редактировать свои сообщения
Вы не можете удалять свои сообщения
Вы не можете голосовать в опросах
Вы не можете прикреплять файлы к сообщениям
Вы не можете скачивать файлы