Морской пехотинец 3: Тыл / The Marine 3: Homefront (Скотт Вайпер / Scott Wiper) [2013, США, Боевик, HDRip][Лицензия]

Ответить на тему
 

Suxrob89 ®

Стаж: 7 лет 2 месяца

Сообщений: 933

Симпатии: 564

--Морской пехотинец 3: Тыл / The Marine 3: Homefront-- Страна: США
Жанр: Боевик
Год выпуска: 2013
Продолжительность: 1:30:09
Перевод: Профессиональный (многоголосый)[Лицензия]
Cубтитры: нет--Режиссер: Скотт Вайпер / Scott Wiper--В ролях: Майк Мизанин, Нил МакДонаф, Джаред Кисо, Джеффри Баллард, Бен Коттон, Стив Бачич, Шон Тайсон, Дарси Лори, Алекс Паунович, Николя Андерсон...--Описание: Солдат-морпех, приехавший домой на время отпуска, оказывается в эпицентре напряженных событий. Ему приходится рисковать жизнью, чтобы спасти свою сестру, которую похитила вооруженная банда, готовящая террористическую атаку на один из бизнес-центров Сиэтла.--Качество: HDRip
Формат: AVI
Видео кодек: XviD
Аудио кодек: AC3
Видео: 720x400, 23.976 fps, 1776 kbps
Аудио: AC3, 48 kHz, 6 ch, 384 kbps- -

MediaInfo

G:\Morskoj.pehotinec.Tyl.2012.P.HDRip.avi
General
Complete name : G:\Morskoj.pehotinec.Tyl.2012.P.HDRip.avi
Format : AVI
Format/Info : Audio Video Interleave
File size : 1.37 GiB
Duration : 1h 30mn
Overall bit rate : 2 170 Kbps
Movie name : Morskoj.pehotinec.Tyl.2013.P.HDRip.IRONCLUB
Director : IRONCLUB
Genre : Action
Writing application : VirtualDubMod 1.5.10.2 (build 2540/release)
Writing library : VirtualDubMod build 2540/release
Original source form/Name : Movie
Copyright : http://ironclub.tv/
Video #0
ID : 0
Format : MPEG-4 Visual
Format profile : Advanced [email protected]
Format settings, BVOP : Yes
Format settings, QPel : No
Format settings, GMC : No warppoints
Format settings, Matrix : Default (H.263)
Codec ID : XVID
Codec ID/Hint : XviD
Duration : 1h 30mn
Bit rate : 1 777 Kbps
Width : 720 pixels
Height : 400 pixels
Display aspect ratio : 16:9
Frame rate : 23.976 fps
Color space : YUV
Chroma subsampling : 4:2:0
Bit depth : 8 bits
Scan type : Progressive
Bits/(Pixel*Frame) : 0.257
Stream size : 1.12 GiB (82%)
Writing library : XviD 1.2.1 (UTC 2008-12-04)
Audio #1
ID : 1
Format : AC-3
Format/Info : Audio Coding 3
Mode extension : CM (complete main)
Codec ID : 2000
Duration : 1h 30mn
Bit rate mode : Constant
Bit rate : 384 Kbps
Channel(s) : 6 channels
Channel positions : Front: L C R, Side: L R, LFE
Sampling rate : 48.0 KHz
Bit depth : 16 bits
Stream size : 248 MiB (18%)
Alignment : Split accross interleaves
Interleave, duration : 42 ms (1.00 video frame)
Interleave, preload duration : 500 ms

Скриншот с названием фильма

Скриншоты






Последний раз редактировалось: Suxrob89 (2013-04-14 04:17), всего редактировалось 2 раз(а)

Создавать темы 22-Мар-2013 06:19

[Профиль]  [ЛС] 

LiX

Стаж: 6 лет 4 месяца

Сообщений: 254

Симпатии: 6

Suxrob89, по моему вы постер с первого морпеха поставили) Потому-что на этом Сина а не Миз)

Создавать темы 22-Мар-2013 07:42

[Профиль]  [ЛС] 
Показать сообщения:    
Ответить на тему

Текущее время: 21-Окт 02:49

Часовой пояс: UTC + 5



Вы не можете начинать темы
Вы не можете отвечать на сообщения
Вы не можете редактировать свои сообщения
Вы не можете удалять свои сообщения
Вы не можете голосовать в опросах
Вы не можете прикреплять файлы к сообщениям
Вы не можете скачивать файлы