Реальность / Reality (Маттео Гарроне / Matteo Garrone) [2012, Италия, Франция, драма, комедия, BDRip](Лицензия)

Ответить на тему
 

Suxrob89 ®

Стаж: 7 лет 3 месяца

Сообщений: 933

Симпатии: 564

--Реальность
Reality
-«Комедия для тех, кто ненавидит реалити-шоу, и тех, кто не может без них жить»- Год выпуска: 2012
Страна: Италия, Франция
Жанр: драма, комедия
Продолжительность: 01:56:25-Перевод: Профессиональный (многоголосый закадровый) [Лицензия]
Субтитры: нет-Режиссёр: Маттео Гарроне / Matteo Garrone
В ролях: Аньелло Арена (Luciano), Лоредана Симиоли (Maria), Нандо Паоне (Michele), Нэлло Иорио (Massimone), Нундзиа Скьяно (Aunt Nunzia), Розария Д’Урсо (Aunt Rosaria), Джузеппина Червицци (Giusy), Клаудия Джерини (TV hostess), Паола Миначчони (Roman customer), Чиро Петроне (Bartender), Сальваторе Мистиконе (Shoemaker), Винченцо Риччио (Vincenzo)
Описание: Лучано, торговец рыбой из Неаполя, глава большого семейства, энергичный, веселый парень, по натуре комик. Он никогда не упускает возможности устроить представление для своих покупателей и многочисленных родственников. Однажды детям приходит в голову, что их талантливый папа мог бы стать участником реалити-шоу «Большой брат». И они убеждают его в этом. Телереальность и мечта «попасть в телевизор» абсолютно меняют жизнь Лучано. Больше ничто не имеет для него значения - ни жена, ни семья, ни друзья, ни работа...- -Лицам до 17 лет обязательно присутствие взрослого-Качество видео: BDRip [BDRemux /HDCLUB/ 1080p]
Формат: AVI
Видео: XviD, 720x304 (2.35:1), 23.976 fps, ~1406 kbps, 0.268 bpp
Аудио: Русский: AC3, 48 kHz, 3/2 (L,C,R,l,r) + LFE ch, 16 bit, 384 kbps-

MediaInfo

General
Complete name : J:\torrents\Reality.2012.BDRip.MVO.-GNR.avi
Format : AVI
Format/Info : Audio Video Interleave
File size : 1.46 GiB
Duration : 1h 56mn
Overall bit rate : 1 800 Kbps
Writing application : VirtualDubMod 1.5.10.3 | www.virtualdub-fr.org || (build 2550/release)
Writing library : VirtualDubMod build 2550/release
Video
ID : 0
Format : MPEG-4 Visual
Format profile : Advanced [email protected]
Format settings, BVOP : 1
Format settings, QPel : No
Format settings, GMC : No warppoints
Format settings, Matrix : Custom
Codec ID : XVID
Codec ID/Hint : XviD
Duration : 1h 56mn
Bit rate : 1 407 Kbps
Width : 720 pixels
Height : 304 pixels
Display aspect ratio : 2.35:1
Frame rate : 23.976 fps
Color space : YUV
Chroma subsampling : 4:2:0
Bit depth : 8 bits
Scan type : Progressive
Compression mode : Lossy
Bits/(Pixel*Frame) : 0.268
Stream size : 1.14 GiB (78%)
Writing library : XviD 65
Audio
ID : 1
Format : AC-3
Format/Info : Audio Coding 3
Mode extension : CM (complete main)
Format settings, Endianness : Big
Codec ID : 2000
Duration : 1h 56mn
Bit rate mode : Constant
Bit rate : 384 Kbps
Channel(s) : 6 channels
Channel positions : Front: L C R, Side: L R, LFE
Sampling rate : 48.0 KHz
Bit depth : 16 bits
Compression mode : Lossy
Stream size : 320 MiB (21%)
Alignment : Split accross interleaves
Interleave, duration : 42 ms (1.00 video frame)
Interleave, preload duration : 500 ms

Скриншоты

Создавать темы 22-Мар-2013 07:50

[Профиль]  [ЛС] 

Sunlover

Стаж: 4 года 8 месяцев

Сообщений: 13

кто-то смотрел, как фильм?

Создавать темы 22-Мар-2013 11:12

[Профиль]  [ЛС] 
Показать сообщения:    
Ответить на тему

Текущее время: 20-Ноя 11:09

Часовой пояс: UTC + 5



Вы не можете начинать темы
Вы не можете отвечать на сообщения
Вы не можете редактировать свои сообщения
Вы не можете удалять свои сообщения
Вы не можете голосовать в опросах
Вы не можете прикреплять файлы к сообщениям
Вы не можете скачивать файлы