Игра со смертью / Baazigar (Аббас Алибхай Бурмавалла /Abbas Alibhai Burmawalla) [1993 г., Мелодрама, триллер, DVDRip]

Ответить на тему
 

nasri91 ®

Стаж: 4 года 8 месяцев

Сообщений: 48

Симпатии: 1

Игра со смертью / Baazigar
Год выпуска: 1993
Страна: Индия
Жанр: Мелодрама, триллер
Продолжительность: 03:01:31
Перевод: Профессиональный (многоголосый, закадровый)
Режиссер: Аббас Алибхай Бурмавалла /Abbas Alibhai Burmawalla
В ролях: Шахрукх Кхан, Каджол, Ракхи Гульзар, Шилпа Шетти, Далип Тахил, Сушант Рай, Джонни Левер
Описание: Много лет назад в семью Аджая Шармы пришла беда. Компаньон его отца Чапра подделывает доверительные документы, в результате чего отец разоряется и, не пережив этого, умирает от инфаркта. Все эти годы юноша живет с мечтой отомстить преступнику. С этой целью он начинает встречаться со старшей дочерью Чапры... Замечательная актёрская игра Ш.Кхана, дебют Шилпы Шетти и вторая актёрская работа Каджол
Доп. информация: приятного просмотра
Качество: DVDRip
Формат: AVI
Видео кодек: XviD
Аудио кодек: MP3
Видео: XviD, 807 Кбит/с 560x320
Аудио: MP3, 127 Кбит/с

Скриншоты

Media Info

D:\kino\2 Индийские филмы\Igra_so_smertyu.avi
General
Complete name : D:\kino\2 Индийские филмы\Igra_so_smertyu.avi
Format : AVI
Format/Info : Audio Video Interleave
File size : 1.36 GiB
Duration : 3h 1mn
Overall bit rate : 1 075 Kbps
Writing application : VirtualDubMod 1.5.4.1 (build 2178/release)
Writing library : VirtualDubMod build 2178/release
Video #0
ID : 0
Format : MPEG-4 Visual
Format profile : Advanced [email protected]
Format settings, BVOP : Yes
Format settings, QPel : No
Format settings, GMC : No warppoints
Format settings, Matrix : Custom
Codec ID : XVID
Codec ID/Hint : XviD
Duration : 3h 1mn
Bit rate : 799 Kbps
Width : 560 pixels
Height : 320 pixels
Display aspect ratio : 16:9
Frame rate : 29.970 fps
Resolution : 8 bits
Colorimetry : 4:2:0
Scan type : Progressive
Bits/(Pixel*Frame) : 0.149
Stream size : 1.01 GiB (74%)
Writing library : XviD 0039 build=2005.09.25 (UTC 2005-09-25)
Audio #1
ID : 1
Format : MPEG Audio
Format version : Version 1
Format profile : Layer 3
Mode : Joint stereo
Format_Settings_ModeExtension : MS Stereo
Codec ID : 55
Codec ID/Hint : MP3
Duration : 3h 1mn
Bit rate mode : Variable
Bit rate : 127 Kbps
Nominal bit rate : 128 Kbps
Channel(s) : 2 channels
Sampling rate : 48.0 KHz
Stream size : 165 MiB (12%)
Alignment : Aligned on interleaves
Interleave, duration : 24 ms (0.72 video frame)
Interleave, preload duration : 502 ms
Writing library : LAME3.96r
Encoding settings : -m j -V 4 -q 2 -lowpass 17.5 --abr 128
Language : English
Audio #2
ID : 2
Format : MPEG Audio
Format version : Version 1
Format profile : Layer 3
Mode : Joint stereo
Format_Settings_ModeExtension : MS Stereo
Codec ID : 55
Codec ID/Hint : MP3
Duration : 3h 1mn
Bit rate mode : Variable
Bit rate : 127 Kbps
Nominal bit rate : 128 Kbps
Channel(s) : 2 channels
Sampling rate : 48.0 KHz
Stream size : 165 MiB (12%)
Alignment : Aligned on interleaves
Interleave, duration : 24 ms (0.72 video frame)
Interleave, preload duration : 502 ms
Writing library : LAME3.96r
Encoding settings : -m j -V 4 -q 2 -lowpass 17.5 --abr 128
Language : English


Последний раз редактировалось: nasri91 (2013-03-22 21:09), всего редактировалось 2 раз(а)

Создавать темы 22-Мар-2013 08:45

[Профиль]  [ЛС] 

westmonster

Стаж: 6 лет 9 месяцев

Сообщений: 8

Ребята, встаньте плиз на раздачу, очень хочу скачать этот фильм!

Создавать темы 16-Янв-2014 21:01

[Профиль]  [ЛС] 

Dimon

Стаж: 7 лет 3 месяца

Сообщений: 63

Да ребята встаньте на раздачу классный фильм

Создавать темы 17-Янв-2014 00:55

[Профиль]  [ЛС] 

Adesh

Стаж: 5 лет 4 месяца

Сообщений: 41

Симпатии: 1

ооо классный фильм....для 1993 года они хорошо всё закрутили в сценарии автор +1

Создавать темы 17-Янв-2014 18:40

[Профиль]  [ЛС] 

Dimon

Стаж: 7 лет 3 месяца

Сообщений: 63

не качает,дайте скорость!!!

Создавать темы 20-Янв-2014 19:49

[Профиль]  [ЛС] 
Показать сообщения:    
Ответить на тему

Текущее время: 22-Сен 23:50

Часовой пояс: UTC + 5



Вы не можете начинать темы
Вы не можете отвечать на сообщения
Вы не можете редактировать свои сообщения
Вы не можете удалять свои сообщения
Вы не можете голосовать в опросах
Вы не можете прикреплять файлы к сообщениям
Вы не можете скачивать файлы