Раскрашенная кожа Дилогия / Painted Skin Dilogy / Hua Pi (Гордон Чан / Gordon Chan, Вуершан / Wuershan) [2008, 2012, Китай, Гонконг, боевик, драма, фентези, история, HDRip] VO + МVO

Страницы :  1, 2  След.

Ответить на тему
 

Grock ®

Стаж: 6 лет 6 месяцев

Сообщений: 637

Симпатии: 113

Раскрашенная кожа / Painted Skin / Hua Pi
Название: Раскрашенная кожа
Оригинальное название: Painted Skin
Год выпуска: 2008
Жанр: Боевик, Драма, Фентези, Исторический.
Озвучивание: Любительское (одноголосое, закадровое)- Jgorrr1
Режиссер: Гордон Чан / Gordon Chan
В ролях:Чжао Вэй, Чжоу Сюнь, Чэнь Кунь, Донни Ен, Бетти Сунь, Ци Юу, Майкл Тан Ан-Е, Чжао Чан-Чжу, Че Ким Фай, Ке Чэн
Описание: Вернувшись из похода, воитель Ванг Шенг привозит домой спасенную им девушку Сяовей – не зная, что на самом деле она демон, питающаяся человеческими сердцами. Идут месяцы и однажды в город забредает генерал Йонг, бывший начальник Ванга, бросивший войско после того, как узнал, что Шенг женился на его любимой Пейронг. Пейронг подозревает, что Сяовей демон, но Ванг не верит ей, поэтому она обращается к Йонгу.
Страна: Китай, Гонконг, Сингапур.
Кинокомпания: Ningxia Film Studio, Shanghai Film Group, Mediacorp Raintree Pictures
Продолжительность: 01:58:07
Качество: HDRip
Формат: AVI (XviD)
Видео данные: 720x304, 24.000fps, 2186kbps, 24Bits
Аудио данные: 48kHz, 6Channels, 448Kbps

Скриншоты




MI

E:\Фильмы\Painted Skin (Дилогия)\Раскрашенная кожа_2008_HDRip.avi
General
Complete name : E:\Фильмы\Painted Skin (Дилогия)\Раскрашенная кожа_2008_HDRip.avi
Format : AVI
Format/Info : Audio Video Interleave
Format profile : OpenDML
File size : 2.18 GiB
Duration : 1h 58mn
Overall bit rate : 2 645 Kbps
Writing application : VirtualDubMod 1.5.10.2 (build 2540/release)
Writing library : VirtualDubMod build 2540/release
Video
Format : MPEG-4 Visual
Format profile : Streaming [email protected]
Format settings, BVOP : Yes
Format settings, QPel : No
Format settings, GMC : No warppoints
Format settings, Matrix : Custom
Codec ID : XVID
Codec ID/Hint : XviD
Duration : 1h 58mn
Bit rate : 2 186 Kbps
Width : 720 pixels
Height : 304 pixels
Display aspect ratio : 2.35
Frame rate : 24.000 fps
Resolution : 24 bits
Colorimetry : 4:2:0
Scan type : Progressive
Bits/(Pixel*Frame) : 0.416
Stream size : 1.80 GiB (83%)
Writing library : XviD 50
Audio
Format : AC-3
Format/Info : Audio Coding 3
Codec ID : 2000
Bit rate mode : Constant
Bit rate : 448 Kbps
Channel(s) : 6 channels
Channel positions : Front: L C R, Rear: L R, LFE
Sampling rate : 48.0 KHz
Stream size : 378 MiB (17%)
Alignment : Split accross interleaves
Interleave, duration : 42 ms (1.00 video frame)
Interleave, preload duration : 500 ms
--Раскрашенная кожа 2 - Воскрешение / Painted Skin II - Resurrection / Hua Pi II
Название: Раскрашенная кожа 2 - Воскрешение
Оригинальное название: Painted Skin II - Resurrection
Год выпуска: 2012
Жанр: Боевик, Драма, Фентези.
Озвучивание: Любительское (многолосое, закадровое)- Green Tea
Режиссер: Вуершан / Wuershan
В ролях: Чжоу Сюнь, Чэнь Кунь, Чжао Вэй, Ми Янг, Уилльям Фенг, Фэй Ксинг, Тинцзя Чэнь, Морган Бенуа
Описание: Чтобы стать смертным демон должен прожить на земле несколько сот лет, но и этого недостаточно, чтобы ощутить весь спектр человеческих эмоций и подлинную экзистенциальную грусть. Для получения этих бонусов демон должен найти человека, готового пожертвовать собственными чувствами и собственной бессмертной душой.
Страна: Китай.
Кинокомпания: Ningxia Film Studio, Mediacorp Raintree Pictures
Продолжительность: 02:11:32
Качество: HDRip
Формат: AVI (XviD)
Видео данные: 720x304, 23.796fps, 1911kbps, 24Bits
Аудио данные: 48kHz, 6Channels, 448Kbps

Скриншоты




MI

E:\Фильмы\Painted Skin (Дилогия)\Раскрашенная кожа 2_2012_HDRip.avi
General
Complete name : E:\Фильмы\Painted Skin (Дилогия)\Раскрашенная кожа 2_2012_HDRip.avi
Format : AVI
Format/Info : Audio Video Interleave
Format profile : OpenDML
File size : 2.18 GiB
Duration : 2h 11mn
Overall bit rate : 2 371 Kbps
Writing application : VirtualDubMod 1.5.10.2 (build 2540/release)
Writing library : VirtualDubMod build 2540/release
Video
Format : MPEG-4 Visual
Format profile : Streaming [email protected]
Format settings, BVOP : Yes
Format settings, QPel : No
Format settings, GMC : No warppoints
Format settings, Matrix : Custom
Codec ID : XVID
Codec ID/Hint : XviD
Duration : 2h 11mn
Bit rate : 1 911 Kbps
Width : 720 pixels
Height : 304 pixels
Display aspect ratio : 2.35
Frame rate : 23.976 fps
Resolution : 24 bits
Colorimetry : 4:2:0
Scan type : Progressive
Bits/(Pixel*Frame) : 0.364
Stream size : 1.76 GiB (81%)
Writing library : XviD 72
Audio
Format : AC-3
Format/Info : Audio Coding 3
Codec ID : 2000
Duration : 2h 11mn
Bit rate mode : Constant
Bit rate : 448 Kbps
Channel(s) : 6 channels
Channel positions : Front: L C R, Rear: L R, LFE
Sampling rate : 48.0 KHz
Stream size : 422 MiB (19%)
Alignment : Split accross interleaves
Interleave, duration : 42 ms (1.00 video frame)
Interleave, preload duration : 500 ms


Последний раз редактировалось: Grock (2013-06-29 10:35), всего редактировалось 6 раз(а)

Создавать темы 24-Мар-2013 15:06

[Профиль]  [ЛС] 

Grock ®

Стаж: 6 лет 6 месяцев

Сообщений: 637

Симпатии: 113

Скоро начнется, хеширование закончится только)..

Создавать темы 24-Мар-2013 15:20

[Профиль]  [ЛС] 

Grock ®

Стаж: 6 лет 6 месяцев

Сообщений: 637

Симпатии: 113

когда раздача
Перезалил торрент файл, прошу перекачать заново.

Создавать темы 24-Мар-2013 15:36

[Профиль]  [ЛС] 

Grock ®

Стаж: 6 лет 6 месяцев

Сообщений: 637

Симпатии: 113

обясните почему?
Потому что ошибка в файле торрента была, пересоздал и залил заново, теперь все норм!
Кстати фильм отличный, мне понравился, советую zd

Создавать темы 24-Мар-2013 15:55

[Профиль]  [ЛС] 

Grock ®

Стаж: 6 лет 6 месяцев

Сообщений: 637

Симпатии: 113

почему не качает релиз?
Не вижу вас в личерах у себя в торрент клиенте, попробуйте удалить закачку
и заново скачать торрент..

Создавать темы 24-Мар-2013 17:08

[Профиль]  [ЛС] 

Grock ®

Стаж: 6 лет 6 месяцев

Сообщений: 637

Симпатии: 113

Раздача вечеров, после 22 часов, извиняюсь за неудобства..

Создавать темы 25-Мар-2013 18:22

[Профиль]  [ЛС] 

IsOl

Стаж: 7 лет 1 месяц

Сообщений: 2

Ребята прибавьте скорости... 5-й день качаю и всего 64%...

Создавать темы 29-Мар-2013 17:54

[Профиль]  [ЛС] 

Grock ®

Стаж: 6 лет 6 месяцев

Сообщений: 637

Симпатии: 113

Ребята прибавьте скорости... 5-й день качаю и всего 64%...
Прибавляю скорость, качайте на полной, трудность в том, что качающих много..)

Создавать темы 29-Мар-2013 23:58

[Профиль]  [ЛС] 

toirchik

Стаж: 4 года 6 месяцев

Сообщений: 33

Симпатии: 2

дайте скорость плиз

Создавать темы 31-Мар-2013 17:07

[Профиль]  [ЛС] 

toirchik

Стаж: 4 года 6 месяцев

Сообщений: 33

Симпатии: 2

очень слабая скорость!!

Создавать темы 31-Мар-2013 17:09

[Профиль]  [ЛС] 

Grock ®

Стаж: 6 лет 6 месяцев

Сообщений: 637

Симпатии: 113

очень слабая скорость!!
Весь канал под этот релиз отдан..если остальные личеры лишь качают, но практически не раздают, уж извините..

Создавать темы 31-Мар-2013 17:59

[Профиль]  [ЛС] 

toirchik

Стаж: 4 года 6 месяцев

Сообщений: 33

Симпатии: 2

vse ewe ne udalos' ska4at'!!! 4e delat'????

Создавать темы 04-Апр-2013 22:56

[Профиль]  [ЛС] 

toirchik

Стаж: 4 года 6 месяцев

Сообщений: 33

Симпатии: 2

sovsem ne ka4aet! po4emu?

Создавать темы 04-Апр-2013 22:58

[Профиль]  [ЛС] 

toirchik

Стаж: 4 года 6 месяцев

Сообщений: 33

Симпатии: 2

добавьте скорость!!!

Создавать темы 05-Апр-2013 00:08

[Профиль]  [ЛС] 

Grock ®

Стаж: 6 лет 6 месяцев

Сообщений: 637

Симпатии: 113

добавьте скорость!!!
Трекер только в себя пришел.. Спасибо админам за это!), Не переживайте,скачаете!
Макс. скорость включить не могу, так как канал на других раздачах..

Создавать темы 05-Апр-2013 01:25

[Профиль]  [ЛС] 
Показать сообщения:    
Ответить на тему

Текущее время: 21-Авг 07:55

Часовой пояс: UTC + 5



Вы не можете начинать темы
Вы не можете отвечать на сообщения
Вы не можете редактировать свои сообщения
Вы не можете удалять свои сообщения
Вы не можете голосовать в опросах
Вы не можете прикреплять файлы к сообщениям
Вы не можете скачивать файлы