Человек-паук [Квадралогия] / Spider-Man [Quadrology] (Сэм Рэйми, Марк Уэбб) [2002-2012 гг., фэнтези и т.д., BDRip 1080p]

Страницы :  1, 2  След.

Ответить на тему
 

DMiTRY ®

Стаж: 6 лет 4 месяца

Сообщений: 649

Симпатии: 28

Человек-паук / Spider-Man «Turn your world upside down»-- Название: Человек-паук
Оригинальное название: Spider-Man-Год выхода: 2002
Жанр: боевик, фэнтези, приключения
Продолжительность: 02:01:12
Перевод: Профессиональный (полное дублирование)
Выпущено:
США--Режиссер: Сэм Рэйми-В ролях: Тоби Магуайр, Уиллем Дефо, Кирстен Данст, Джеймс Франко, Клифф Робертсон, Розмари Харрис, Дж.К. Симмонс, Джо Манганьелло, Джерри Бекер, Билл Нанн-Сюжет фильма: Еще вчера Питер Паркер был обычным школьником, которого все считали неудачником и занудой, но в один прекрасный день с ним происходит чудо. Питера кусает паук - мутант,
после чего с нескладным юношей происходит фантастическая метаморфоза!
Невероятным образом обостряются все его чувства. Он обретает огромную силу и ловкость, а главное, умение - лазать по стенам и выбрасывать прочную как сталь паутину!--Формат: МKV
Качество: BD-RIP 1080p-Видео-кодек: H.264
Аудио-кодек: AC3+DTS-Видео: H.264,1920x1040,22805 кб/c-Аудио №1:
AC3, 48 kHz, 3/2 (L,C,R,l,r) + LFE ch, 640 Kbps - Профессиональный (полное дублирование)
Аудио №2: DTS, 48 kHz, 3/2 (L,C,R,l,r) + LFE ch, 1536 Kbps - Двухголосый П.Гланц и А.Назарова
Аудио №3: DTS, 48 kHz, 3/2 (L,C,R,l,r) + LFE ch, 1536 Kbps - Одноголосый Королёв
Аудио №4: DTS, 48 kHz, 3/2 (L,C,R,l,r) + LFE ch, 1536 Kbps - Оригинальная дорожка
Аудио №5 AC3, 48 kHz, 2/0 (L,R), 192 Kbps - Комментарии--

Скриншоты



Медиаинфо

Общее
Уникальный идентификатор : 191709219738247005108658732808173351411 (0x9039DA49F36A243BB76F8289976171F3)
Полное имя : E:\фильмы\Человек паук - Квадралогия\Человек паук [2002 BD-RIP 1080p].mkv
Формат : Matroska
Версия формата : Version 2
Размер файла : 19,3 Гбайт
Продолжительность : 2 ч. 1 м.
Общий поток : 22,8 Мбит/сек
Название фильма : Spider-Man (2002)
Дата кодирования : UTC 2011-10-15 12:14:20
Программа кодирования : mkvmerge v3.4.0 ('Rapunzel') сборка от May 15 2010 09:38:20
Библиотека кодирования : libebml v0.8.0 + libmatroska v0.9.0
Видео
Идентификатор : 1
Формат : AVC
Формат/Информация : Advanced Video Codec
Профиль формата : [email protected]
Параметр CABAC формата : Да
Параметр ReFrames формата : 4 кадра
Идентификатор кодека : V_MPEG4/ISO/AVC
Продолжительность : 2 ч. 1 м.
Битрейт : 17,0 Мбит/сек
Ширина : 1920 пикселей
Высота : 1040 пикселей
Соотношение сторон : 16:9
Частота кадров : 23,976 кадра/сек
Цветовое пространство : YUV
Субдискретизация насыщенности : 4:2:0
Битовая глубина : 8 бит
Тип развёртки : Прогрессивная
Бит/(Пиксели*Кадры) : 0.355
Размер потока : 14,0 Гбайт (73%)
Заголовок : Spider-Man (2002)
Библиотека кодирования : x264 core 118 r2085kMod 8a62835
Настройки программы : cabac=1 / ref=4 / deblock=1:-3:-2 / analyse=0x3:0x113 / me=umh / subme=11 / psy=1 / fade_compensate=0.90 / psy_rd=1.00:0.20 / mixed_ref=1 / me_range=48 / chroma_me=1 / trellis=2 / 8x8dct=1 / cqm=0 / deadzone=21,11 / fast_pskip=0 / chroma_qp_offset=-3 / threads=12 / sliced_threads=0 / nr=0 / decimate=0 / interlaced=0 / bluray_compat=0 / constrained_intra=0 / bframes=7 / b_pyramid=2 / b_adapt=2 / b_bias=0 / direct=3 / weightb=1 / open_gop=0 / weightp=2 / keyint=250 / keyint_min=23 / scenecut=40 / intra_refresh=0 / rc_lookahead=100 / rc=2pass / mbtree=1 / bitrate=17000 / ratetol=1.0 / qcomp=0.80 / qpmin=0 / qpmax=69 / qpstep=4 / cplxblur=20.0 / qblur=0.5 / vbv_maxrate=40000 / vbv_bufsize=40000 / nal_hrd=none / ip_ratio=1.20 / aq=3:0.80
Язык : English
Default : Да
Forced : Нет
Коэффициенты матрицы : BT.709-5, BT.1361, IEC 61966-2-4 709, SMPTE RP177
Аудио #1
Идентификатор : 2
Формат : AC-3
Формат/Информация : Audio Coding 3
Расширение режима : CM (complete main)
Параметр Endianness формата : Big
Идентификатор кодека : A_AC3
Продолжительность : 2 ч. 1 м.
Вид битрейта : Постоянный
Битрейт : 640 Кбит/сек
Каналы : 6 каналов
Расположение каналов : Front: L C R, Side: L R, LFE
Частота : 48,0 КГц
Битовая глубина : 16 бит
Метод сжатия : С потерями
Размер потока : 555 Мбайт (3%)
Заголовок : AC3 5.1, 640kb/s [Blu-ray CEE]
Язык : Russian
Default : Да
Forced : Нет
Аудио #2
Идентификатор : 3
Формат : AC-3
Формат/Информация : Audio Coding 3
Расширение режима : CM (complete main)
Параметр Endianness формата : Big
Идентификатор кодека : A_AC3
Продолжительность : 2 ч. 1 м.
Вид битрейта : Постоянный
Битрейт : 448 Кбит/сек
Каналы : 6 каналов
Расположение каналов : Front: L C R, Side: L R, LFE
Частота : 48,0 КГц
Битовая глубина : 16 бит
Метод сжатия : С потерями
Размер потока : 388 Мбайт (2%)
Заголовок : AC3 51., 448kb/s [Многоголосый закадровый]
Язык : Russian
Default : Нет
Forced : Нет
Аудио #3
Идентификатор : 4
Формат : DTS
Формат/Информация : Digital Theater Systems
Идентификатор кодека : A_DTS
Продолжительность : 2 ч. 1 м.
Вид битрейта : Постоянный
Битрейт : 1510 Кбит/сек
Каналы : 6 каналов
Расположение каналов : Front: L C R, Side: L R, LFE
Частота : 48,0 КГц
Битовая глубина : 24 бит
Метод сжатия : С потерями
Размер потока : 1,28 Гбайт (7%)
Заголовок : DTS 5.1, 1536kb/s [Двухголосый закадровый, П.Гланц и А.Назарова]
Язык : Russian
Default : Нет
Forced : Нет
Аудио #4
Идентификатор : 5
Формат : DTS
Формат/Информация : Digital Theater Systems
Идентификатор кодека : A_DTS
Продолжительность : 2 ч. 1 м.
Вид битрейта : Постоянный
Битрейт : 1510 Кбит/сек
Каналы : 6 каналов
Расположение каналов : Front: L C R, Side: L R, LFE
Частота : 48,0 КГц
Битовая глубина : 24 бит
Метод сжатия : С потерями
Размер потока : 1,28 Гбайт (7%)
Заголовок : DTS 5.1, 1536kb/s [Одноголосый закадровый, В.Королёв]
Язык : Russian
Default : Нет
Forced : Нет
Аудио #5
Идентификатор : 6
Формат : DTS
Формат/Информация : Digital Theater Systems
Идентификатор кодека : A_DTS
Продолжительность : 2 ч. 1 м.
Вид битрейта : Постоянный
Битрейт : 1510 Кбит/сек
Каналы : 6 каналов
Расположение каналов : Front: L C R, Side: L R, LFE
Частота : 48,0 КГц
Битовая глубина : 24 бит
Метод сжатия : С потерями
Размер потока : 1,28 Гбайт (7%)
Заголовок : DTS 5.1, 1536kb/s
Язык : English
Default : Нет
Forced : Нет
Аудио #6
Идентификатор : 7
Формат : AC-3
Формат/Информация : Audio Coding 3
Профиль формата : Dolby Digital
Расширение режима : CM (complete main)
Параметр Endianness формата : Big
Идентификатор кодека : A_AC3
Продолжительность : 2 ч. 1 м.
Вид битрейта : Постоянный
Битрейт : 192 Кбит/сек
Каналы : 2 канала
Расположение каналов : Front: L R
Частота : 48,0 КГц
Битовая глубина : 16 бит
Метод сжатия : С потерями
Размер потока : 166 Мбайт (1%)
Заголовок : AC3 2.0, 192kb/s [commentary with Director Sam Raimi, actor Kirsten Dunst, producer Laura Ziskin, and co-producer Grant Curtis]
Язык : English
Default : Нет
Forced : Нет
Текст #1
Идентификатор : 8
Формат : UTF-8
Идентификатор кодека : S_TEXT/UTF8
Идентификатор кодека/Информация : UTF-8 Plain Text
Язык : Russian
Default : Нет
Forced : Нет
Текст #2
Идентификатор : 9
Формат : UTF-8
Идентификатор кодека : S_TEXT/UTF8
Идентификатор кодека/Информация : UTF-8 Plain Text
Язык : English
Default : Нет
Forced : Нет
Меню
00:00:00.000 : en:01. Start
00:06:29.472 : en:02. Columbia University Research Lab
00:09:22.896 : en:03. Bitten by a Spider
00:14:56.187 : en:04. Norman Tests the Performance Enhancers
00:17:50.653 : en:05. A Big Change
00:21:53.604 : en:06. Great Reflexes
00:23:28.616 : en:07. Fight With Flash
00:25:18.767 : en:08. Scaling the Hights
00:34:35.115 : en:08. With Great Power Comes Great Responsibility
00:40:22.170 : en:10. The Wrestling Match
00:41:44.127 : en:11. Enter the Thief
00:43:13.883 : en:12. The Death of Uncle Ben
00:44:40.011 : en:13. Chasing Uncle Ben's Killer
00:54:32.978 : en:14. Spider-Man to the Rescue
00:55:52.558 : en:15. J. Jonah Jameson
01:00:48.937 : en:16. Peter's Photos of Spider-Man
01:04:20.774 : en:17. World Unity Festival
01:05:57.036 : en:18. Battle Over Times Square
01:12:12.370 : en:19. Norman Meets the Goblin
01:14:18.871 : en:20. Goblin Terrorizes the Bugle
01:15:48.669 : en:21. The Goblin's Proposal
01:19:35.521 : en:22. The Alley Kiss
01:22:06.463 : en:23. Hot Time With the Goblin
01:25:13.608 : en:24. Thanksgiving Dinner
01:30:39.225 : en:25. Goblin Attacks Aunt May
01:39:36.679 : en:26. The Queensboro Bridge
01:45:08.385 : en:27. A Final Battle
01:50:27.830 : en:28. Norman's Funeral
Человек-паук 2 / Spider-Man 2«Take Another Spin In IMAX»-- Название: Человек-паук 2
Оригинальное название: Spider-Man 2-Год выхода: 2004
Жанр: боевик, фэнтези, приключения
Продолжительность: 02:15:48
Перевод: Профессиональный (полное дублирование)
Выпущено:
США--Режиссер: Сэм Рэйми-В ролях: Тоби Магуайр, Кирстен Данст, Джеймс Франко, Альфред Молина, Розмари Харрис, Дж.К. Симмонс, Донна Мерфи, Дэниэл Гиллис, Дилан Бейкер, Билл Нанн-Сюжет фильма:С момента событий, произошедших в первом фильме, прошло два года. Тихоня Питер Паркер сталкивается с новыми проблемами: он борется со своим «даром и проклятьем»,
отчаянно пытаясь балансировать на грани двух своих жизней: метающего паутину супергероя Человека-Паука и обычного студента колледжа…
Мучимый своими секретами, Питер понимает, что его отношения со всеми, кто ему дорог, в опасности или заходят в тупик. Его любовь к Мэри Джейн становится еще сильнее,
обостряемая порывом Питера раскрыть ей свой секрет и признаться в любви. Дружба с Гарри осложняется горечью молодого Осборна по умершему отцу и всё большим желанием
отомстить Человеку-Пауку.--Формат: МKV
Качество: BD-RIP 1080p-Видео-кодек: H.264
Аудио-кодек: AC3+DTS-Видео: H.264,1920x800 ,18025 кб/c-Аудио №1:
AC3, 48 kHz, 3/2 (L,C,R,l,r) + LFE ch, 448 kb/s - дубляж со вставками многоголосого с BD
Аудио №2: AC3, 3/2 (L,C,R,l,r) + LFE ch, 448 kb/s - дубляж со вставками оригинала + сабы
Аудио №3: AC3, 48000 Hz, 5.1, s16, 448 kb/s - многоголосый с BD
Аудио №4: AC3, 48000 Hz, 5.1, s16, 1536 kb/s , 3/2 (L,C,R,l,r) + LFE ch, - Оригинальная дорожка--

Медианфо

Общее
Уникальный идентификатор : 212727470353566054249434790294468576406 (0xA009D20D417ECDAEBA450408419A4496)
Полное имя : E:\фильмы\Человек паук - Квадралогия\Человек паук 2 [2004 BD-RIP 1080p].mkv
Формат : Matroska
Версия формата : Version 2
Размер файла : 17,1 Гбайт
Продолжительность : 2 ч. 15 м.
Общий поток : 18,0 Мбит/сек
Название фильма : Spider-Man 2.1 (2004)
Дата кодирования : UTC 2011-10-15 13:08:03
Программа кодирования : mkvmerge v3.4.0 ('Rapunzel') сборка от May 15 2010 09:38:20
Библиотека кодирования : libebml v0.8.0 + libmatroska v0.9.0
Видео
Идентификатор : 1
Формат : AVC
Формат/Информация : Advanced Video Codec
Профиль формата : [email protected]
Параметр CABAC формата : Да
Параметр ReFrames формата : 5 кадров
Идентификатор кодека : V_MPEG4/ISO/AVC
Продолжительность : 2 ч. 15 м.
Битрейт : 15,2 Мбит/сек
Ширина : 1920 пикселей
Высота : 800 пикселей
Соотношение сторон : 2,40:1
Частота кадров : 23,976 кадра/сек
Цветовое пространство : YUV
Субдискретизация насыщенности : 4:2:0
Битовая глубина : 8 бит
Тип развёртки : Прогрессивная
Бит/(Пиксели*Кадры) : 0.412
Размер потока : 14,1 Гбайт (82%)
Заголовок : Spider-Man 2.1 (2004)
Библиотека кодирования : x264 core 118 r2085 8a62835
Настройки программы : cabac=1 / ref=5 / deblock=1:-3:-3 / analyse=0x3:0x113 / me=umh / subme=11 / psy=1 / psy_rd=1.10:0.05 / mixed_ref=1 / me_range=48 / chroma_me=1 / trellis=2 / 8x8dct=1 / cqm=0 / deadzone=21,11 / fast_pskip=0 / chroma_qp_offset=-3 / threads=12 / sliced_threads=0 / nr=0 / decimate=0 / interlaced=0 / bluray_compat=0 / constrained_intra=0 / bframes=7 / b_pyramid=2 / b_adapt=2 / b_bias=0 / direct=3 / weightb=1 / open_gop=0 / weightp=2 / keyint=250 / keyint_min=23 / scenecut=40 / intra_refresh=0 / rc=2pass / mbtree=0 / bitrate=15175 / ratetol=1.0 / qcomp=0.70 / qpmin=0 / qpmax=69 / qpstep=4 / cplxblur=20.0 / qblur=0.5 / ip_ratio=1.40 / pb_ratio=1.20 / aq=1:0.80
Язык : English
Default : Да
Forced : Нет
Коэффициенты матрицы : BT.709-5, BT.1361, IEC 61966-2-4 709, SMPTE RP177
Аудио #1
Идентификатор : 2
Формат : AC-3
Формат/Информация : Audio Coding 3
Расширение режима : CM (complete main)
Параметр Endianness формата : Big
Идентификатор кодека : A_AC3
Продолжительность : 2 ч. 15 м.
Вид битрейта : Постоянный
Битрейт : 448 Кбит/сек
Каналы : 6 каналов
Расположение каналов : Front: L C R, Side: L R, LFE
Частота : 48,0 КГц
Битовая глубина : 16 бит
Метод сжатия : С потерями
Размер потока : 435 Мбайт (2%)
Заголовок : AC3 5.1, 448kb/s [дубляж со вставками многоголосого с Blu-ray CEE]
Язык : Russian
Default : Да
Forced : Нет
Аудио #2
Идентификатор : 3
Формат : AC-3
Формат/Информация : Audio Coding 3
Расширение режима : CM (complete main)
Параметр Endianness формата : Big
Идентификатор кодека : A_AC3
Продолжительность : 2 ч. 15 м.
Вид битрейта : Постоянный
Битрейт : 448 Кбит/сек
Каналы : 6 каналов
Расположение каналов : Front: L C R, Side: L R, LFE
Частота : 48,0 КГц
Битовая глубина : 16 бит
Метод сжатия : С потерями
Размер потока : 435 Мбайт (2%)
Заголовок : AC3 5.1, 448kb/s [дубляж со вставками оригинала + сабы]
Язык : Russian
Default : Нет
Forced : Нет
Аудио #3
Идентификатор : 4
Формат : AC-3
Формат/Информация : Audio Coding 3
Расширение режима : CM (complete main)
Параметр Endianness формата : Big
Идентификатор кодека : A_AC3
Продолжительность : 2 ч. 15 м.
Вид битрейта : Постоянный
Битрейт : 448 Кбит/сек
Каналы : 6 каналов
Расположение каналов : Front: L C R, Side: L R, LFE
Частота : 48,0 КГц
Битовая глубина : 16 бит
Метод сжатия : С потерями
Размер потока : 435 Мбайт (2%)
Заголовок : AC3 5.1, 448kb/s [многоголосый с Blu-ray CEE]
Язык : Russian
Default : Нет
Forced : Нет
Аудио #4
Идентификатор : 5
Формат : DTS
Формат/Информация : Digital Theater Systems
Идентификатор кодека : A_DTS
Продолжительность : 2 ч. 15 м.
Вид битрейта : Постоянный
Битрейт : 1510 Кбит/сек
Каналы : 6 каналов
Расположение каналов : Front: L C R, Side: L R, LFE
Частота : 48,0 КГц
Битовая глубина : 24 бит
Метод сжатия : С потерями
Размер потока : 1,43 Гбайт (8%)
Заголовок : DTS 5.1, 1536kb/s
Язык : English
Default : Нет
Forced : Нет
Текст #1
Идентификатор : 6
Формат : UTF-8
Идентификатор кодека : S_TEXT/UTF8
Идентификатор кодека/Информация : UTF-8 Plain Text
Заголовок : forced
Язык : Russian
Default : Нет
Forced : Нет
Текст #2
Идентификатор : 7
Формат : UTF-8
Идентификатор кодека : S_TEXT/UTF8
Идентификатор кодека/Информация : UTF-8 Plain Text
Язык : Russian
Default : Нет
Forced : Нет
Текст #3
Идентификатор : 8
Формат : UTF-8
Идентификатор кодека : S_TEXT/UTF8
Идентификатор кодека/Информация : UTF-8 Plain Text
Язык : English
Default : Нет
Forced : Нет
Меню
00:00:00.000 : en:01. Main Titles
00:03:27.457 : en:02. Pizza man
00:08:13.535 : en:03. J. Jonah Jameson
00:09:41.456 : en:04. Dr. Connors
00:10:54.946 : en:05. "SURPRISE!"
00:16:10.845 : en:06. Peter and MJ in the backyard
00:19:24.663 : en:07. Mr. Ditkovich
00:21:19.737 : en:08. Otto Octavius
00:25:05.629 : en:09. Wash 'n' Dry
00:25:43.667 : en:10. The Importance of Being Earnest
00:27:16.843 : en:11. Car chase
00:29:17.798 : en:12. The importance of being on time
00:31:39.648 : en:13. Web failure
00:32:47.132 : en:14. The elevator
00:35:20.910 : en:15. Peter Calls MJ
00:37:27.120 : en:16. Otto's demonstration
00:44:07.770 : en:17. Horror hospital
00:46:11.143 : en:18. Ock awakens to the horror
00:47:29.555 : en:19. New villain in town
00:49:01.146 : en:20. Doc Ock's lair
00:51:17.449 : en:21. Bank heist
00:54:21.717 : en:22. Battle building
00:57:42.167 : en:23. Planetarium party
01:02:44.344 : en:24. Spidey crash lands in alley
01:04:15.894 : en:25. Ock rebuilds
01:06:08.298 : en:26. Diagnosis
01:08:26.269 : en:27. Spider-Man no more
01:10:49.579 : en:28. "Raindrops Keep Falling On My Head"
01:12:33.599 : en:29. Peter attends MJ's play
01:15:23.435 : en:30. Jameson gets the suit
01:17:11.293 : en:31. Peter's confession
01:21:21.793 : en:32. One more little chore
01:24:15.717 : en:33. Peter and the burning building
01:26:49.538 : en:34. Frustration
01:28:59.334 : en:35. Peter and Aunt May in the backyard
01:32:49.147 : en:36. "My back! My back!"
01:34:22.740 : en:37. MJ Doubts John's the one
01:35:44.655 : en:38. "Do you love me, or not?"
01:38:13.512 : en:39. Enter the octopus
01:40:40.284 : en:40. HE'S BACK
01:41:46.475 : en:41. Clock tower fight
01:42:44.241 : en:42. The train
01:45:32.910 : en:43. A train to catch
01:48:16.448 : en:44. Grateful train passengers
01:50:58.652 : en:45. Harry learns the truth about Peter
01:53:12.869 : en:46. The final confrontation
01:56:23.643 : en:47. Peter appeals to Otto
02:01:27.613 : en:48. Web love
02:03:50.465 : en:49. The return of the Green Goblin
02:06:17.320 : en:50. Here comes the bride
02:10:14.473 : en:51. The final swing
02:11:03.689 : en:52. End credits
Человек-паук 3: Враг в отражении / Spider-Man 3 «Next summer, the greatest battle lies within.»-- Название: Человек-паук 3: Враг в отражении
Оригинальное название: Spider-Man 3-Год выхода: 2007
Жанр: боевик, фэнтези, приключения
Продолжительность: 02:19:11
Перевод: Профессиональный (полное дублирование)
Выпущено:
США--Режиссер: Сэм Рэйми-В ролях: Тоби Магуайр, Уиллем Дефо, Кирстен Данст, Джеймс Франко, Клифф Робертсон, Розмари Харрис, Дж.К. Симмонс, Джо Манганьелло, Джерри Бекер, Билл Нанн-Сюжет фильма: Как долго человек может сражаться с тьмой, пока не обнаружит её внутри себя? Питеру Паркеру, обладающему сверхспособностями Человека-паука, придётся вступить в
схватку с новыми противниками - Песочным Человеком, Черной Смертью и скрывающимся под маской Зелёного Гоблина своим заклятым врагом Гарри Осборном.
Но главным врагом Человека-паука на этот раз станет... сам Человек-паук.--Формат: МKV
Качество: BD-RIP 1080p-Видео-кодек: H.264
Аудио-кодек: AC3+DTS-Видео: H.264,1920x800 ,20709 кб/c-Аудио №1:
AC3, 48000 Hz, 5.1, 3/2 (L,C,R,l,r) + LFE ch, 640 Kbps - Профессиональный (полное дублирование)
Аудио №2:ac3, 48000 Hz, 5.1,3/2 (L,C,R,l,r) , 1536 kb/s - Авторский Королёв
Аудио №3: ac3, 48000 Hz,3/2 (L,C,R,l,r) + LFE ch 2.0, s16, 192 kb/s - Комментарии
Аудио №4: DTS, 48 kHz, 3/2 (L,C,R,l,r) + LFE ch, 1536 Kbps - Оригинальная дорожка--

Скриншоты



Медиаинфо

Общее
Уникальный идентификатор : 241550790392453153285714482663838554684 (0xB5B8FD72A7496438B5441FA48D399A3C)
Полное имя : E:\фильмы\Человек паук - Квадралогия\Человек паук 3 [2007 BD-RIP 1080p].mkv
Формат : Matroska
Версия формата : Version 2
Размер файла : 20,1 Гбайт
Продолжительность : 2 ч. 19 м.
Общий поток : 20,7 Мбит/сек
Название фильма : Spider-Man 3 (2007)
Дата кодирования : UTC 2011-10-15 13:58:46
Программа кодирования : mkvmerge v3.4.0 ('Rapunzel') сборка от May 15 2010 09:38:20
Библиотека кодирования : libebml v0.8.0 + libmatroska v0.9.0
Видео
Идентификатор : 1
Формат : AVC
Формат/Информация : Advanced Video Codec
Профиль формата : [email protected]
Параметр CABAC формата : Да
Параметр ReFrames формата : 5 кадров
Идентификатор кодека : V_MPEG4/ISO/AVC
Продолжительность : 2 ч. 19 м.
Битрейт : 16,7 Мбит/сек
Ширина : 1920 пикселей
Высота : 800 пикселей
Соотношение сторон : 2,40:1
Частота кадров : 23,976 кадра/сек
Цветовое пространство : YUV
Субдискретизация насыщенности : 4:2:0
Битовая глубина : 8 бит
Тип развёртки : Прогрессивная
Бит/(Пиксели*Кадры) : 0.453
Размер потока : 15,8 Гбайт (78%)
Заголовок : Spider-Man 3 (2007)
Библиотека кодирования : x264 core 118 r2085 8a62835
Настройки программы : cabac=1 / ref=5 / deblock=1:-3:-3 / analyse=0x3:0x113 / me=umh / subme=11 / psy=1 / psy_rd=1.00:0.00 / mixed_ref=1 / me_range=48 / chroma_me=1 / trellis=2 / 8x8dct=1 / cqm=0 / deadzone=21,11 / fast_pskip=0 / chroma_qp_offset=-2 / threads=12 / sliced_threads=0 / nr=0 / decimate=1 / interlaced=0 / bluray_compat=0 / constrained_intra=0 / bframes=7 / b_pyramid=2 / b_adapt=2 / b_bias=0 / direct=3 / weightb=1 / open_gop=0 / weightp=2 / keyint=250 / keyint_min=23 / scenecut=40 / intra_refresh=0 / rc=2pass / mbtree=0 / bitrate=16685 / ratetol=1.0 / qcomp=0.70 / qpmin=0 / qpmax=69 / qpstep=4 / cplxblur=20.0 / qblur=0.5 / ip_ratio=1.40 / pb_ratio=1.30 / aq=1:0.80
Язык : English
Default : Да
Forced : Нет
Коэффициенты матрицы : BT.709-5, BT.1361, IEC 61966-2-4 709, SMPTE RP177
Аудио #1
Идентификатор : 2
Формат : AC-3
Формат/Информация : Audio Coding 3
Расширение режима : CM (complete main)
Параметр Endianness формата : Big
Идентификатор кодека : A_AC3
Продолжительность : 2 ч. 19 м.
Вид битрейта : Постоянный
Битрейт : 640 Кбит/сек
Каналы : 6 каналов
Расположение каналов : Front: L C R, Side: L R, LFE
Частота : 48,0 КГц
Битовая глубина : 16 бит
Метод сжатия : С потерями
Размер потока : 637 Мбайт (3%)
Заголовок : AC3 5.1, 640kb/s [Blu-ray CEE]
Язык : Russian
Default : Да
Forced : Нет
Аудио #2
Идентификатор : 3
Формат : DTS
Формат/Информация : Digital Theater Systems
Идентификатор кодека : A_DTS
Продолжительность : 2 ч. 19 м.
Вид битрейта : Постоянный
Битрейт : 1510 Кбит/сек
Каналы : 6 каналов
Расположение каналов : Front: L C R, Side: L R, LFE
Частота : 48,0 КГц
Битовая глубина : 24 бит
Метод сжатия : С потерями
Размер потока : 1,47 Гбайт (7%)
Заголовок : DTS 5.1, 1536kb/s [Одноголосый закадровый, В.Королёв]
Язык : Russian
Default : Нет
Forced : Нет
Аудио #3
Идентификатор : 4
Формат : DTS
Формат/Информация : Digital Theater Systems
Идентификатор кодека : A_DTS
Продолжительность : 2 ч. 19 м.
Вид битрейта : Постоянный
Битрейт : 1510 Кбит/сек
Каналы : 6 каналов
Расположение каналов : Front: L C R, Side: L R, LFE
Частота : 48,0 КГц
Битовая глубина : 24 бит
Метод сжатия : С потерями
Размер потока : 1,47 Гбайт (7%)
Заголовок : DTS 5.1, 1536kb/s
Язык : English
Default : Нет
Forced : Нет
Аудио #4
Идентификатор : 5
Формат : AC-3
Формат/Информация : Audio Coding 3
Профиль формата : Dolby Digital
Расширение режима : CM (complete main)
Параметр Endianness формата : Big
Идентификатор кодека : A_AC3
Продолжительность : 2 ч. 19 м.
Вид битрейта : Постоянный
Битрейт : 192 Кбит/сек
Каналы : 2 канала
Расположение каналов : Front: L R
Частота : 48,0 КГц
Битовая глубина : 16 бит
Метод сжатия : С потерями
Размер потока : 191 Мбайт (1%)
Заголовок : AC3 2.0, 192kb/s [commentary with Director Sam Raimi, actors James Franco, Tobey Maguire, Topher Grace, Bryce Dallas Howard, Thomas Hayden Church and Kirsten Dunst]
Язык : English
Default : Нет
Forced : Нет
Аудио #5
Идентификатор : 6
Формат : AC-3
Формат/Информация : Audio Coding 3
Профиль формата : Dolby Digital
Расширение режима : CM (complete main)
Параметр Endianness формата : Big
Идентификатор кодека : A_AC3
Продолжительность : 2 ч. 19 м.
Вид битрейта : Постоянный
Битрейт : 192 Кбит/сек
Каналы : 2 канала
Расположение каналов : Front: L R
Частота : 48,0 КГц
Битовая глубина : 16 бит
Метод сжатия : С потерями
Размер потока : 191 Мбайт (1%)
Заголовок : AC3 2.0, 192kb/s [commentary with producers Avi Arad, Grant Curtis, Laura Ziskin, visual effects supervisor Scott Stokdyk and editor Bob Murawski]
Язык : English
Default : Нет
Forced : Нет
Текст #1
Идентификатор : 7
Формат : UTF-8
Идентификатор кодека : S_TEXT/UTF8
Идентификатор кодека/Информация : UTF-8 Plain Text
Язык : Russian
Default : Нет
Forced : Нет
Текст #2
Идентификатор : 8
Формат : UTF-8
Идентификатор кодека : S_TEXT/UTF8
Идентификатор кодека/Информация : UTF-8 Plain Text
Заголовок : commentary with Director Sam Raimi, actors James Franco, Tobey Maguire, Topher Grace, Bryce Dallas Howard, Thomas Hayden Church and Kirsten Dunst
Язык : English
Default : Нет
Forced : Нет
Текст #3
Идентификатор : 9
Формат : UTF-8
Идентификатор кодека : S_TEXT/UTF8
Идентификатор кодека/Информация : UTF-8 Plain Text
Заголовок : commentary with producers Avi Arad, Grant Curtis, Laura Ziskin, visual effects supervisor Scott Stokdyk and editor Bob Murawski
Язык : English
Default : Нет
Forced : Нет
Текст #4
Идентификатор : 10
Формат : UTF-8
Идентификатор кодека : S_TEXT/UTF8
Идентификатор кодека/Информация : UTF-8 Plain Text
Язык : English
Default : Нет
Forced : Нет
Меню
00:00:00.000 : en:01. Main Title
00:03:11.525 : en:02. NY Loves Spidey
00:04:39.738 : en:03. It's Wonderful
00:07:59.771 : en:04. The Goblin's Lair
00:08:33.680 : en:05. Web Love
00:10:30.255 : en:06. Flint Marko
00:13:54.709 : en:07. Give Her This
00:16:55.014 : en:08. Peter vs. Harry
00:22:24.301 : en:09. Marko Atomized
00:24:44.942 : en:10. Some Memory Impairment
00:27:11.547 : en:11. Birth of Sandman
00:30:12.644 : en:12. The Review
00:32:31.241 : en:13. Crane Disaster
00:36:10.335 : en:14. Daily Bugle
00:39:43.965 : en:15. 'nuff Said
00:40:08.489 : en:16. Welcome Home Harry!
00:41:43.209 : en:17. One Critic?
00:43:20.014 : en:18. Key to the City
00:44:43.472 : en:19. Sand Truck
00:46:39.005 : en:20. A Good Show
00:49:24.545 : en:21. Armored Car
00:51:53.152 : en:22. Engagement Dinner
00:59:27.731 : en:23. We Were Wrong
01:03:30.473 : en:24. The Symbiote Strikes
01:06:34.532 : en:25. Bank Robbery
01:08:07.417 : en:26. Subway
01:10:45.825 : en:27. Like a Prison
01:13:50.593 : en:28. Lonely Girl
01:15:23.394 : en:29. Calling a Woman
01:16:42.264 : en:30. A Little Self Deception
01:19:21.715 : en:31. Attack His Heart!
01:22:16.682 : en:32. It's Over
01:24:21.348 : en:33. The Other Guy
01:27:08.348 : en:34. Strawberries
01:30:17.787 : en:35. Dirt in Your Eye
01:32:43.475 : en:36. Bad Peter
01:35:14.375 : en:37. Return of the Sandman
01:35:53.498 : en:38. Jazz Club
01:40:46.332 : en:39. the Bell Tower
01:44:15.624 : en:40. Forgive Yourself
01:47:20.225 : en:41. The Team-Up
01:49:10.794 : en:42. City in Crisis
01:52:52.724 : en:43. The Return of Spider-Man
01:56:34.571 : en:44. The Giant Sandman
01:59:57.107 : en:45. Film's Extra
02:00:28.346 : en:46. Team-Work
02:02:26.756 : en:47. Spidey vs. Venom
02:04:29.379 : en:48. Sound Cage
02:06:11.314 : en:49. I Didn't Want This
02:09:33.474 : en:50. You're My Friend
02:11:56.492 : en:51. You or No One
02:13:59.198 : en:52. End Credits
Новый человек-паук / The Amazing Spider-Man«Новый герой, новая история, новая любовь»-- Название: Новый человек-паук
Оригинальное название: The Amazing Spider-Man-Год выхода: 2012
Жанр: боевик, фэнтези, приключения
Продолжительность: 02:16:17
Перевод: Профессиональный (полное дублирование)
Выпущено:
США--Режиссер: Марк Уэбб-В ролях: Эндрю Гарфилд, Эмма Стоун, Рис Иванс, Дэнис Лири, Мартин Шин, Салли Филд, Эмбет Дэвидц, Кэмпбелл Скотт, Ирфан Кхан, Крис Зилка-Сюжет фильма: В детстве Питер Паркер был оставлен своими родителями, и поэтому воспитывался дядей и тётей. Шли годы, Питер был обычным примерным школьником, подвергался нападкам хулиганов и был влюблён в свою одноклассницу Гвен Стэйси, которая сама втайне отвечала ему взаимностью. Но после укуса генетически изменённого паука, Питер получает невероятные сверхспособности и его жизнь меняется навсегда.--Формат: МKV
Качество: BD-RIP 1080p-Видео-кодек: H.264
Аудио-кодек: AC3+DTS-Видео: MPEG-4 AVC, 8369 Кбит/с, 1920x804-Аудио №1: Русский (AC3, 6 ch, 640 Кбит/с)
Аудио №2: Английский (DTS, 6 ch, 1510 Кбит/с)--

Cкриншоты



Медиаинфо

Общее
Уникальный идентификатор : 221408542149714233473122023935254398226 (0xA691BBEFBE01776E95959010DC530512)
Полное имя : E:\фильмы\Человек паук - Квадралогия\Новый человек паук [2012 BD-RIP 1080p].mkv
Формат : Matroska
Версия формата : Version 2
Размер файла : 10,0 Гбайт
Продолжительность : 2 ч. 16 м.
Общий поток : 10,5 Мбит/сек
Дата кодирования : UTC 2012-10-25 07:16:58
Программа кодирования : mkvmerge v5.2.0 ('I can't explain') built on Dec 18 2011 18:12:03
Библиотека кодирования : libebml v1.2.3 + libmatroska v1.3.0
Видео
Идентификатор : 1
Формат : AVC
Формат/Информация : Advanced Video Codec
Профиль формата : [email protected]
Параметр CABAC формата : Да
Параметр ReFrames формата : 5 кадров
Идентификатор кодека : V_MPEG4/ISO/AVC
Продолжительность : 2 ч. 16 м.
Битрейт : 8370 Кбит/сек
Ширина : 1920 пикселей
Высота : 804 пикселя
Соотношение сторон : 2,40:1
Частота кадров : 23,976 кадра/сек
Цветовое пространство : YUV
Субдискретизация насыщенности : 4:2:0
Битовая глубина : 8 бит
Тип развёртки : Прогрессивная
Бит/(Пиксели*Кадры) : 0.226
Размер потока : 7,77 Гбайт (78%)
Библиотека кодирования : x264 core 128 r2216 198a7ea
Настройки программы : cabac=1 / ref=5 / deblock=1:0:0 / analyse=0x3:0x113 / me=umh / subme=8 / psy=1 / psy_rd=1.00:0.00 / mixed_ref=1 / me_range=16 / chroma_me=1 / trellis=1 / 8x8dct=1 / cqm=0 / deadzone=21,11 / fast_pskip=1 / chroma_qp_offset=-2 / threads=12 / lookahead_threads=2 / sliced_threads=0 / nr=0 / decimate=1 / interlaced=0 / bluray_compat=0 / constrained_intra=0 / bframes=3 / b_pyramid=2 / b_adapt=2 / b_bias=0 / direct=3 / weightb=1 / open_gop=0 / weightp=2 / keyint=240 / keyint_min=24 / scenecut=40 / intra_refresh=0 / rc_lookahead=50 / rc=2pass / mbtree=1 / bitrate=8370 / ratetol=1.0 / qcomp=0.60 / qpmin=0 / qpmax=69 / qpstep=4 / cplxblur=20.0 / qblur=0.5 / ip_ratio=1.40 / aq=1:1.00
Язык : English
Default : Да
Forced : Нет
Аудио #1
Идентификатор : 2
Формат : AC-3
Формат/Информация : Audio Coding 3
Расширение режима : CM (complete main)
Параметр Endianness формата : Big
Идентификатор кодека : A_AC3
Продолжительность : 2 ч. 16 м.
Вид битрейта : Постоянный
Битрейт : 640 Кбит/сек
Каналы : 6 каналов
Расположение каналов : Front: L C R, Side: L R, LFE
Частота : 48,0 КГц
Битовая глубина : 16 бит
Метод сжатия : С потерями
Размер потока : 624 Мбайт (6%)
Заголовок : DUB [BD EUR]
Язык : Russian
Default : Да
Forced : Нет
Аудио #2
Идентификатор : 3
Формат : DTS
Формат/Информация : Digital Theater Systems
Идентификатор кодека : A_DTS
Продолжительность : 2 ч. 16 м.
Вид битрейта : Постоянный
Битрейт : 1510 Кбит/сек
Каналы : 6 каналов
Расположение каналов : Front: L C R, Side: L R, LFE
Частота : 48,0 КГц
Битовая глубина : 24 бит
Метод сжатия : С потерями
Размер потока : 1,44 Гбайт (14%)
Заголовок : Original
Язык : English
Default : Нет
Forced : Нет
Текст #1
Идентификатор : 4
Формат : UTF-8
Идентификатор кодека : S_TEXT/UTF8
Идентификатор кодека/Информация : UTF-8 Plain Text
Язык : Russian
Default : Нет
Forced : Нет
Текст #2
Идентификатор : 5
Формат : UTF-8
Идентификатор кодека : S_TEXT/UTF8
Идентификатор кодека/Информация : UTF-8 Plain Text
Язык : English
Default : Нет
Forced : Нет
Меню
00:00:00.000 : en:00:00:00.000
00:07:45.924 : en:00:07:45.924
00:14:39.670 : en:00:14:39.670
00:22:57.543 : en:00:22:57.543
00:32:58.226 : en:00:32:58.226
00:41:25.066 : en:00:41:25.066
00:48:42.503 : en:00:48:42.503
00:55:10.933 : en:00:55:10.933
01:03:17.293 : en:01:03:17.293
01:12:29.011 : en:01:12:29.011
01:17:51.750 : en:01:17:51.750
01:24:38.949 : en:01:24:38.949
01:34:04.556 : en:01:34:04.556
01:42:59.548 : en:01:42:59.548
01:52:16.355 : en:01:52:16.355
02:00:52.912 : en:02:00:52.912
Релиз подготовлен специально для tas-ix.netДля вас старался DMiTRY


Последний раз редактировалось: DMiTRY (2013-04-13 16:30), всего редактировалось 4 раз(а)

Создавать темы 27-Мар-2013 00:52

[Профиль]  [ЛС] 

sixaxis

Стаж: 6 лет 5 месяцев

Сообщений: 75

у меня нет слов, просто превосходна - начинаю кач-кач, хоть бы с вас пошла отдача

Создавать темы 27-Мар-2013 01:35

[Профиль]  [ЛС] 

Mixer City

Стаж: 6 лет 9 месяцев

Сообщений: 754

Симпатии: 63

DMiTRY, я исправил все названия на верные, поправил шапку и озолочённо-прилепил...

Создавать темы 27-Мар-2013 02:14

[Профиль]  [ЛС] 

DMiTRY ®

Стаж: 6 лет 4 месяца

Сообщений: 649

Симпатии: 28

DMiTRY, я исправил все названия на верные, поправил шапку и озолочённо-прилепил...
спасибо большое за помощь.
Встал на раздачу,все желающие могут начинать качать.

Создавать темы 27-Мар-2013 08:49

[Профиль]  [ЛС] 

DMiTRY ®

Стаж: 6 лет 4 месяца

Сообщений: 649

Симпатии: 28

Если такие релизы будут качать хотя бы 5-10 человек,то буду выкладывать такие фильмологии частенько.

Создавать темы 28-Мар-2013 12:24

[Профиль]  [ЛС] 

sixaxis

Стаж: 6 лет 5 месяцев

Сообщений: 75

я пас, качать не буду,((

Создавать темы 30-Мар-2013 13:17

[Профиль]  [ЛС] 

inspir3

Стаж: 4 года 6 месяцев

Сообщений: 35

Симпатии: 1

Высший класс!! СПАСИБО!!!

Создавать темы 08-Апр-2013 08:35

[Профиль]  [ЛС] 

DMiTRY ®

Стаж: 6 лет 4 месяца

Сообщений: 649

Симпатии: 28

что-то люди вы качаете совсем вяло.....

Создавать темы 18-Апр-2013 15:34

[Профиль]  [ЛС] 

АЗИЗ 84

Стаж: 5 лет 5 месяцев

Сообщений: 34

спасибо за фильмы DMiTRY качаем качаем

Создавать темы 19-Апр-2013 18:26

[Профиль]  [ЛС] 

АЗИЗ 84

Стаж: 5 лет 5 месяцев

Сообщений: 34

DMiTRY вернитесь на раздачу

Создавать темы 09-Май-2013 10:07

[Профиль]  [ЛС] 

DMiTRY ®

Стаж: 6 лет 4 месяца

Сообщений: 649

Симпатии: 28

вернулся на раздачу.

Создавать темы 11-Май-2013 13:01

[Профиль]  [ЛС] 

King_93

Стаж: 5 лет 3 месяца

Сообщений: 25

ХОЧУ СКОЧАТЬ МОДЕРЫ МОЖНО СКОРОСТИ

Создавать темы 07-Июн-2013 17:05

[Профиль]  [ЛС] 

King_93

Стаж: 5 лет 3 месяца

Сообщений: 25

МОДЕРЫ поддержите скорость на неделью плис, буду блогодарен

Создавать темы 10-Июн-2013 23:11

[Профиль]  [ЛС] 

Vika89

Стаж: 6 лет 2 месяца

Сообщений: 90

Симпатии: 3

DMiTRY, вернитесь на ра3да4ку

Создавать темы 12-Июн-2013 20:47

[Профиль]  [ЛС] 

DMiTRY ®

Стаж: 6 лет 4 месяца

Сообщений: 649

Симпатии: 28

не смогу встать тут на раздачу. По скольку удалил фильмологию.

Создавать темы 13-Июл-2013 01:07

[Профиль]  [ЛС] 
Показать сообщения:    
Ответить на тему

Текущее время: 25-Сен 18:10

Часовой пояс: UTC + 5



Вы не можете начинать темы
Вы не можете отвечать на сообщения
Вы не можете редактировать свои сообщения
Вы не можете удалять свои сообщения
Вы не можете голосовать в опросах
Вы не можете прикреплять файлы к сообщениям
Вы не можете скачивать файлы