Порно для всей семьи / PG Porn 1-сезон, 1-8 серии (8) (Джеймс Ганн) [2008 г., Короткометражка, Комедия, Ужасы, WebRip]

Страницы :  1, 2, 3, 4  След.

Ответить на тему
 

Amiko ®

Стаж: 4 года 6 месяцев

Сообщений: 41

Симпатии: 1

Порно для всей семьи / PG Porn 1-сезон, 1-8 серии (8) / Порно для всей семьи / PG Porn
Год выпуска: 2008
Страна: США
Жанр: Короткометражка, Комедия, Ужасы
Продолжительность: 27:03
Перевод: Любительский (двухголосый)
Режиссер: Джеймс Ганн
В ролях: Джеймс Ганн, Белладонна, Саша Грэй, Рокси Девилль, Ариа Джованни, Дженна Хейз, Бри Олсон, Натан Филлион, Шон Ганн, Майкл Розенбаум, Ли Кирк и др.
Описание: «Порно для всей семьи» (англ. James Gunn’s PG Porn) — веб-сериал, созданный братьями Джеймсом, Брайаном и Шоном Ганном. Он представляет собой пародию на порнофильмы, где перед непосредственным моментом полового акта происходит неожиданная ситуация. В каждой серии снимается профессиональный мейнстримовый актёр, в то время, как главные женские роли исполняют настоящие порноактрисы.
Главное кредо фильма появляется в финальных титрах: «Для тех, кто любит в порно всё… кроме секса».
Первая серия, «Вгоняю болт твоей жене», вышла на сайте Spike.com и собрала за неделю более миллиона просмотров. В результате Spike.com заказал у создателей 11 серий.
Название сериала, PG Porn, обыгрывает систему возрастных рейтингов в США. PG означает «Parental Guidance» и рекомендует присутствие родителей при просмотре детьми фильма с таким рейтингом. Несмотря на название, сериал не вписывается в рамки данного рейтинга: хотя в нём отсутствует секс, в некоторых сериях содержатся элементы насилия и отчасти нецензурные ругательства.
По словам Джеймса Ганна, идея к сериалу пришла в начале 2000-х, в то время, когда короткометражные веб-сериалы не были распространены. Продюсером сериала выступил Стивен Блейкхарт из компании The Good Boys Productions, также шоу продюсировали Джейк Зим и Питер Сэфран из Safran Digital Group (SDG).
Качество: WebRip
Формат: AVI
Видео кодек: XviD
Аудио кодек: MP3
Видео: 640x480 / 640x368 / 480x360 29.97fps
Аудио: 44100Hz stereo 128Kbps

Media Info

Format : AVI
Format/Info : Audio Video Interleave
File size : 89.3 MiB
Duration : 5mn 26s
Overall bit rate : 2 294 Kbps
Writing application : VirtualDubMod 1.5.10.2 (build 2540/release)
Writing library : VirtualDubMod build 2540/release
Video
ID : 0
Format : MPEG-4 Visual
Format profile : [email protected]
Format settings, BVOP : No
Format settings, QPel : No
Format settings, GMC : No warppoints
Format settings, Matrix : Default (H.263)
Codec ID : XVID
Codec ID/Hint : XviD
Duration : 5mn 26s
Bit rate : 1 927 Kbps
Width : 640 pixels
Height : 368 pixels
Display aspect ratio : 1.739
Frame rate : 23.976 fps
Color space : YUV
Chroma subsampling : 4:2:0
Bit depth : 8 bits
Scan type : Progressive
Compression mode : Lossy
Bits/(Pixel*Frame) : 0.341
Stream size : 75.0 MiB (84%)
Writing library : XviD 1.1.2 (UTC 2006-11-01)
Audio #1
ID : 1
Format : MPEG Audio
Format version : Version 1
Format profile : Layer 3
Mode : Joint stereo
Codec ID : 55
Codec ID/Hint : MP3
Duration : 5mn 26s
Bit rate mode : Constant
Bit rate : 192 Kbps
Channel(s) : 2 channels
Sampling rate : 44.1 KHz
Compression mode : Lossy
Stream size : 7.48 MiB (8%)
Alignment : Split accross interleaves
Interleave, duration : 42 ms (1.00 video frame)
Interleave, preload duration : 500 ms
Audio #2
ID : 2
Format : MPEG Audio
Format version : Version 1
Format profile : Layer 3
Mode : Joint stereo
Mode extension : MS Stereo
Codec ID : 55
Codec ID/Hint : MP3
Duration : 5mn 26s
Bit rate mode : Constant
Bit rate : 160 Kbps
Channel(s) : 2 channels
Sampling rate : 44.1 KHz
Compression mode : Lossy
Stream size : 6.23 MiB (7%)
Alignment : Split accross interleaves
Interleave, duration : 42 ms (1.00 video frame)
Interleave, preload duration : 500 ms
Writing library : LAME3.98

Скриншоты






Последний раз редактировалось: Amiko (2013-03-27 23:01), всего редактировалось 2 раз(а)

Создавать темы 27-Мар-2013 15:03

[Профиль]  [ЛС] 

komoliddinkhuja

Стаж: 4 года 10 месяцев

Сообщений: 41

Симпатии: 2

класс давайте быстрее раздавайте

Создавать темы 27-Мар-2013 15:09

[Профиль]  [ЛС] 

Amiko ®

Стаж: 4 года 6 месяцев

Сообщений: 41

Симпатии: 1

класс давайте быстрее раздавайте
пусть Проверят Сначало

Создавать темы 27-Мар-2013 15:13

[Профиль]  [ЛС] 

jazz4fun69

Стаж: 4 года 6 месяцев

Сообщений: 69

прочитал название, думал кто-то сейчас на мальдивы отправится (:
а нет, скачаю даже.

Создавать темы 27-Мар-2013 15:15

[Профиль]  [ЛС] 

SNIL

Стаж: 5 лет 8 месяцев

Сообщений: 2624

Симпатии: 341

Качнём!

Создавать темы 27-Мар-2013 15:16

[Профиль]  [ЛС] 

MaKs_KZ

Стаж: 5 лет 11 месяцев

Сообщений: 55

Симпатии: 3

Саша Грэй, о_О

Создавать темы 27-Мар-2013 15:24

[Профиль]  [ЛС] 

Amiko ®

Стаж: 4 года 6 месяцев

Сообщений: 41

Симпатии: 1

Модеры Проверьте РЕлиз!!

Создавать темы 27-Мар-2013 15:47

[Профиль]  [ЛС] 

nazar51020

Стаж: 4 года 8 месяцев

Сообщений: 24

СААААААШШШШШУЛЯЯЯЯЯЯ =D иди ко мне

Создавать темы 27-Мар-2013 15:51

[Профиль]  [ЛС] 

eternal

Стаж: 4 года 7 месяцев

Сообщений: 3

Симпатии: 1

Помогите с раздачей плиз Как соблазнять трудно доступных женщин

Создавать темы 27-Мар-2013 16:31

[Профиль]  [ЛС] 

Fuk3r

Стаж: 5 лет 8 месяцев

Сообщений: 72

Симпатии: 12

последний скрин рулит)))

Создавать темы 27-Мар-2013 16:53

[Профиль]  [ЛС] 

Amiko ®

Стаж: 4 года 6 месяцев

Сообщений: 41

Симпатии: 1

последний скрин рулит)))
Я бы Больше скринов Залил Таких Но Когда скачаете Увидите !!!

Создавать темы 27-Мар-2013 16:55

[Профиль]  [ЛС] 

ruslan1000

Стаж: 4 года 8 месяцев

Сообщений: 26

скарей всего дабро не дадут мадеры

Создавать темы 27-Мар-2013 16:57

[Профиль]  [ЛС] 

homer_simpson

Стаж: 5 лет 6 месяцев

Сообщений: 9

название многообещающее.

Создавать темы 27-Мар-2013 16:57

[Профиль]  [ЛС] 

SNIL

Стаж: 5 лет 8 месяцев

Сообщений: 2624

Симпатии: 341

Парень на скринах если не ошибаюсь ирал Лекса в Тайнах Смолвиля))

Создавать темы 27-Мар-2013 17:03

[Профиль]  [ЛС] 

Arnold

Стаж: 6 лет 5 месяцев

Сообщений: 149

Симпатии: 5

приколы же))

Создавать темы 27-Мар-2013 17:05

[Профиль]  [ЛС] 
Показать сообщения:    
Ответить на тему

Текущее время: 26-Сен 16:00

Часовой пояс: UTC + 5



Вы не можете начинать темы
Вы не можете отвечать на сообщения
Вы не можете редактировать свои сообщения
Вы не можете удалять свои сообщения
Вы не можете голосовать в опросах
Вы не можете прикреплять файлы к сообщениям
Вы не можете скачивать файлы