Видео уроки по работе в FL Studio

Ответить на тему
 

pashkevi4 ®

Стаж: 4 года 8 месяцев

Сообщений: 48

Симпатии: 4

Видео уроки по работе в FL Studio

Язык: русский
Год выпуска: 2009
Продолжительность: 01:27:18
Описание: Подборка видео уроков по работе в FL Studio от http://www.fl-school.ru/
Данная подборка видео уроков будет полезна не только для "бывалых" в области
написания музыки, но и для новичков в этом деле. В данных уроках достаточно
подробно и ясно описываются все производимые действия и очень подробным
разъяснением всех пунктов.

Содержание:


Содержание:

Урок 1. Введение(Mediainfo)


General
Complete name : H:\Уроки от www.FL-School.ru\Урок 1. Введение.avi
Format : AVI
Format/Info : Audio Video Interleave
File size : 27.2 MiB
Duration : 3mn 24s
Overall bit rate : 1 114 Kbps
Video
ID : 0
Format : TechSmith
Codec ID : tscc
Codec ID/Info : TechSmith Screen Capture
Duration : 3mn 24s
Bit rate : 750 Kbps
Width : 640 pixels
Height : 480 pixels
Display aspect ratio : 4:3
Frame rate : 25.000 fps
Bit depth : 8 bits
Bits/(Pixel*Frame) : 0.098
Stream size : 18.3 MiB (67%)
Audio
ID : 1
Format : PCM
Format settings, Endianness : Little
Format settings, Sign : Signed
Codec ID : 1
Duration : 3mn 24s
Bit rate mode : Constant
Bit rate : 352.8 Kbps
Channel(s) : 1 channel
Sampling rate : 22.05 KHz
Bit depth : 16 bits
Stream size : 8.61 MiB (32%)
Interleave, duration : 994 ms (24.85 video frames)
Interleave, preload duration : 749 ms

Урок 2. Добавление сэмплов(Mediainfo)


General
Complete name : H:\Уроки от www.FL-School.ru\Урок 2. Добавление сэмплов.avi
Format : AVI
Format/Info : Audio Video Interleave
File size : 18.2 MiB
Duration : 1mn 59s
Overall bit rate : 1 284 Kbps
Video
ID : 0
Format : TechSmith
Codec ID : tscc
Codec ID/Info : TechSmith Screen Capture
Duration : 1mn 59s
Bit rate : 918 Kbps
Width : 640 pixels
Height : 480 pixels
Display aspect ratio : 4:3
Frame rate : 25.000 fps
Bit depth : 8 bits
Bits/(Pixel*Frame) : 0.120
Stream size : 13.0 MiB (71%)
Audio
ID : 1
Format : PCM
Format settings, Endianness : Little
Format settings, Sign : Signed
Codec ID : 1
Duration : 1mn 59s
Bit rate mode : Constant
Bit rate : 352.8 Kbps
Channel(s) : 1 channel
Sampling rate : 22.05 KHz
Bit depth : 16 bits
Stream size : 5.01 MiB (27%)
Interleave, duration : 992 ms (24.81 video frames)
Interleave, preload duration : 749 ms

Урок 3. Добавление VST(Mediainfo)


General
Complete name : H:\Уроки от www.FL-School.ru\Урок 3. Добавление VST.avi
Format : AVI
Format/Info : Audio Video Interleave
File size : 29.1 MiB
Duration : 3mn 5s
Overall bit rate : 1 313 Kbps
Video
ID : 0
Format : TechSmith
Codec ID : tscc
Codec ID/Info : TechSmith Screen Capture
Duration : 3mn 5s
Bit rate : 948 Kbps
Width : 640 pixels
Height : 480 pixels
Display aspect ratio : 4:3
Frame rate : 25.000 fps
Bit depth : 8 bits
Bits/(Pixel*Frame) : 0.123
Stream size : 21.0 MiB (72%)
Audio
ID : 1
Format : PCM
Format settings, Endianness : Little
Format settings, Sign : Signed
Codec ID : 1
Duration : 3mn 5s
Bit rate mode : Constant
Bit rate : 352.8 Kbps
Channel(s) : 1 channel
Sampling rate : 22.05 KHz
Bit depth : 16 bits
Stream size : 7.82 MiB (27%)
Interleave, duration : 994 ms (24.85 video frames)
Interleave, preload durati : 749 ms

Урок 4. Создание трека(Mediainfo)


General
Complete name : H:\Уроки от www.FL-School.ru\Урок 4. Создание трека.avi
Format : AVI
Format/Info : Audio Video Interleave
File size : 111 MiB
Duration : 13mn 36s
Overall bit rate : 1 138 Kbps
Video
ID : 0
Format : TechSmith
Codec ID : tscc
Codec ID/Info : TechSmith Screen Capture
Duration : 13mn 36s
Bit rate : 777 Kbps
Width : 640 pixels
Height : 480 pixels
Display aspect ratio : 4:3
Frame rate : 25.000 fps
Bit depth : 8 bits
Bits/(Pixel*Frame) : 0.101
Stream size : 75.6 MiB (68%)
Audio
ID : 1
Format : PCM
Format settings, Endianness : Little
Format settings, Sign : Signed
Codec ID : 1
Duration : 13mn 35s
Bit rate mode : Constant
Bit rate : 352.8 Kbps
Channel(s) : 1 channel
Sampling rate : 22.05 KHz
Bit depth : 16 bits
Stream size : 34.3 MiB (31%)
Interleave, duration : 999 ms (24.97 video frames)
Interleave, preload duration : 749 ms

Урок 5. Сайдчейн(Mediainfo)


General
Complete name : H:\Уроки от www.FL-School.ru\Урок 5. Сайдчейн.avi
Format : AVI
Format/Info : Audio Video Interleave
File size : 62.8 MiB
Duration : 6mn 13s
Overall bit rate : 1 409 Kbps
Video
ID : 0
Format : TechSmith
Codec ID : tscc
Codec ID/Info : TechSmith Screen Capture
Duration : 6mn 13s
Bit rate : 1 047 Kbps
Width : 640 pixels
Height : 480 pixels
Display aspect ratio : 4:3
Frame rate : 25.000 fps
Bit depth : 8 bits
Bits/(Pixel*Frame) : 0.136
Stream size : 46.7 MiB (74%)
Audio
ID : 1
Format : PCM
Format settings, Endianness : Little
Format settings, Sign : Signed
Codec ID : 1
Duration : 6mn 13s
Bit rate mode : Constant
Bit rate : 352.8 Kbps
Channel(s) : 1 channel
Sampling rate : 22.05 KHz
Bit depth : 16 bits
Stream size : 15.7 MiB (25%)
Interleave, duration : 997 ms (24.93 video frames)
Interleave, preload duration : 749 ms

Урок 6. Жирный басс в FL Studio(Mediainfo)


General
Complete name : H:\Уроки от www.FL-School.ru\Урок 6. Жирный басс в FL Studio.avi
Format : AVI
Format/Info : Audio Video Interleave
File size : 62.9 MiB
Duration : 5mn 12s
Overall bit rate : 1 685 Kbps
Video
ID : 0
Format : TechSmith
Codec ID : tscc
Codec ID/Info : TechSmith Screen Capture
Duration : 5mn 12s
Bit rate : 1 323 Kbps
Width : 640 pixels
Height : 480 pixels
Display aspect ratio : 4:3
Frame rate : 25.000 fps
Bits/(Pixel*Frame) : 0.172
Stream size : 49.4 MiB (79%)
Audio
ID : 1
Format : PCM
Format settings, Endianness : Little
Format settings, Sign : Signed
Codec ID : 1
Duration : 5mn 12s
Bit rate mode : Constant
Bit rate : 352.8 Kbps
Channel(s) : 1 channel
Sampling rate : 22.05 KHz
Bit depth : 16 bits
Stream size : 13.2 MiB (21%)
Interleave, duration : 997 ms (24.92 video frames)
Interleave, preload duration : 749 ms

Урок 7. Как писать Drum & Bass в FL Studio(Mediainfo)


General
Complete name : H:\Уроки от www.FL-School.ru\Урок 7. Как писать Drum & Bass в FL Studio.avi
Format : AVI
Format/Info : Audio Video Interleave
File size : 52.4 MiB
Duration : 9mn 21s
Overall bit rate : 783 Kbps
Video
ID : 0
Format : TechSmith
Codec ID : tscc
Codec ID/Info : TechSmith Screen Capture
Duration : 9mn 21s
Bit rate : 422 Kbps
Width : 640 pixels
Height : 480 pixels
Display aspect ratio : 4:3
Frame rate : 25.000 fps
Bits/(Pixel*Frame) : 0.055
Stream size : 28.2 MiB (54%)
Audio
ID : 1
Format : PCM
Format settings, Endianness : Little
Format settings, Sign : Signed
Codec ID : 1
Duration : 9mn 21s
Bit rate mode : Constant
Bit rate : 352.8 Kbps
Channel(s) : 1 channel
Sampling rate : 22.05 KHz
Bit depth : 16 bits
Stream size : 23.6 MiB (45%)
Interleave, duration : 999 ms (24.98 video frames)
Interleave, preload duration : 749 ms

Урок 8. Написание Techno в FL Studio - Часть 1(Mediainfo)


General
Complete name : H:\Уроки от www.FL-School.ru\Урок 8. Написание Techno в FL Studio - Часть 1.avi
Format : AVI
Format/Info : Audio Video Interleave
File size : 77.8 MiB
Duration : 6mn 31s
Overall bit rate : 1 668 Kbps
Video
Format : TechSmith
Codec ID : tscc
Codec ID/Info : TechSmith Screen Capture
Duration : 6mn 31s
Bit rate : 1 307 Kbps
Width : 1 280 pixels
Height : 1 024 pixels
Display aspect ratio : 5:4
Frame rate : 25.000 fps
Bits/(Pixel*Frame) : 0.040
Stream size : 60.9 MiB (78%)
Audio
Format : PCM
Format settings, Endianness : Little
Format settings, Sign : Unsigned
Codec ID : 1
Codec ID/Hint : Microsoft
Duration : 6mn 31s
Bit rate mode : Constant
Bit rate : 352.8 Kbps
Channel(s) : 1 channel
Sampling rate : 22.05 KHz
Resolution : 16 bits
Stream size : 16.5 MiB (21%)
Interleave, duration : 998 ms (24.95 video frames)
Interleave, preload duration : 749 ms

Урок 9. Написание Techno в FL Studio - Часть 2(Mediainfo)


General
Complete name : H:\Уроки от www.FL-School.ru\Урок 9. Написание Techno в FL Studio - Часть 2.avi
Format : AVI
Format/Info : Audio Video Interleave
File size : 111 MiB
Duration : 9mn 59s
Overall bit rate : 1 553 Kbps
Video
ID : 0
Format : TechSmith
Codec ID : tscc
Codec ID/Info : TechSmith Screen Capture
Duration : 9mn 59s
Bit rate : 1 192 Kbps
Width : 1 280 pixels
Height : 1 024 pixels
Display aspect ratio : 5:4
Frame rate : 25.000 fps
Bits/(Pixel*Frame) : 0.036
Stream size : 85.2 MiB (77%)
Audio
ID : 1
Format : PCM
Format settings, Endianness : Little
Format settings, Sign : Signed
Codec ID : 1
Duration : 9mn 59s
Bit rate mode : Constant
Bit rate : 352.8 Kbps
Channel(s) : 1 channel
Sampling rate : 22.05 KHz
Bit depth : 16 bits
Stream size : 25.2 MiB (23%)
Interleave, duration : 999 ms (24.98 video frames)
Interleave, preload duration : 749 ms

Урок 10. Написание Techno в FL Studio - Часть 3(Mediainfo)


General
Complete name : H:\Уроки от www.FL-School.ru\Урок 10. Написание Techno в FL Studio -Часть 3.avi
Format : AVI
Format/Info : Audio Video Interleave
File size : 268 MiB
Duration : 14mn 48s
Overall bit rate : 2 529 Kbps
Video
ID : 0
Format : TechSmith
Codec ID : tscc
Codec ID/Info : TechSmith Screen Capture
Duration : 14mn 48s
Bit rate : 2 167 Kbps
Width : 1 280 pixels
Height : 1 024 pixels
Display aspect ratio : 5:4
Frame rate : 30.000 fps
Bits/(Pixel*Frame) : 0.055
Stream size : 230 MiB (86%)
Audio
ID : 1
Format : PCM
Format settings, Endianness : Little
Format settings, Sign : Signed
Codec ID : 1
Duration : 14mn 48s
Bit rate mode : Constant
Bit rate : 352.8 Kbps
Channel(s) : 1 channel
Sampling rate : 22.05 KHz
Bit depth : 16 bits
Stream size : 37.4 MiB (14%)
Interleave, duration : 999 ms (29.98 video frames)
Interleave, preload duration : 749 ms

Урок 11. Работа с каналами. Применение эффектов для отдельного трека дорожки(Mediainfo)


General
Complete name : H:\Уроки от www.FL-School.ru\Урок 11. Работа с каналами. Применение эффектов для отдельного трека дорожки.avi
Format : AVI
Format/Info : Audio Video Interleave
File size : 145 MiB
Duration : 5mn 47s
Overall bit rate : 3 499 Kbps
Video
ID : 0
Format : TechSmith
Codec ID : tscc
Codec ID/Info : TechSmith Screen Capture
Duration : 5mn 47s
Bit rate : 3 135 Kbps
Width : 1 920 pixels
Height : 1 052 pixels
Display aspect ratio : 1.85:1
Frame rate : 30.000 fps
Bit depth : 8 bits
Bits/(Pixel*Frame) : 0.052
Stream size : 130 MiB (90%)
Audio
ID : 1
Format : PCM
Format settings, Endianness : Little
Format settings, Sign : Signed
Codec ID : 1
Duration : 5mn 47s
Bit rate mode : Constant
Bit rate : 352.8 Kbps
Channel(s) : 1 channel
Sampling rate : 22.05 KHz
Bit depth : 16 bits
Stream size : 14.6 MiB (10%)
Interleave, duration : 999 ms (29.96 video frames)
Interleave, preload duration : 749 ms
Видео кодек: Другой MPEG4
Видео: TSCC 640x480 25.00fps и TSCC 1280x1024 25.00fps
Аудио: PCM 22050Hz mono 352kbps

Скриншоты







Последний раз редактировалось: pashkevi4 (2013-03-29 21:50), всего редактировалось 2 раз(а)

Создавать темы 27-Мар-2013 23:28

[Профиль]  [ЛС] 

baxabestboy95

Стаж: 6 лет 5 месяцев

Сообщений: 72

Симпатии: 3

Когда будет источник ?скорости Плиззз!!!

Создавать темы 28-Мар-2013 01:56

[Профиль]  [ЛС] 

Nosferatu

Стаж: 4 года 8 месяцев

Сообщений: 79

Симпатии: 5

Спасибо автору!!! Если есть возможность добавьте еще прогу "FL Studio Signature Bundle"

Создавать темы 29-Мар-2013 00:42

[Профиль]  [ЛС] 

pashkevi4 ®

Стаж: 4 года 8 месяцев

Сообщений: 48

Симпатии: 4

Nosferatu, К сожалению такой прогой не владею(((а так бы с радостью...

Создавать темы 31-Мар-2013 20:06

[Профиль]  [ЛС] 

blackshark

Стаж: 6 лет 10 месяцев

Сообщений: 260

Симпатии: 23

pashkevi4, скачать дашь или нет?

Создавать темы 12-Апр-2013 16:01

[Профиль]  [ЛС] 

jetxxxx

Стаж: 4 года 10 месяцев

Сообщений: 38

Симпатии: 1

народ скорости пож

Создавать темы 05-Май-2013 21:14

[Профиль]  [ЛС] 

Tolik4523

Стаж: 5 лет 10 месяцев

Сообщений: 271

Симпатии: 27

Видео уроки по FL Studio на http://rutracker.org
http://rutracker.org/forum/viewtopic.php?t=3942004 1.22 GB
http://rutracker.org/forum/viewtopic.php?t=4129737 835 MB
http://rutracker.org/forum/viewtopic.php?t=4185031 4.36 GB
Если есть заинтересованные, то по возможности скачайте и залейте на трекер

Создавать темы 01-Июл-2013 22:30

[Профиль]  [ЛС] 

Victor96

Стаж: 4 года 9 месяцев

Сообщений: 3

Скорость в студию!!!!

Создавать темы 12-Июл-2013 15:45

[Профиль]  [ЛС] 

[PRIST]

Стаж: 6 лет

Сообщений: 90

Симпатии: 6

pashkevi4, загляни пожалуйста в лс, я тебе сообщение отправил на счет данных уроков.

Создавать темы 21-Июл-2013 22:21

[Профиль]  [ЛС] 

kuyubi

Стаж: 5 лет 9 месяцев

Сообщений: 3

Кто живой есть ? Встаньте на раздачу пожалуйста

Создавать темы 07-Окт-2014 13:02

[Профиль]  [ЛС] 
Показать сообщения:    
Ответить на тему

Текущее время: 19-Ноя 05:59

Часовой пояс: UTC + 5



Вы не можете начинать темы
Вы не можете отвечать на сообщения
Вы не можете редактировать свои сообщения
Вы не можете удалять свои сообщения
Вы не можете голосовать в опросах
Вы не можете прикреплять файлы к сообщениям
Вы не можете скачивать файлы