Охота / Jagten (Томас Винтерберг / Thomas Vinterberg) [2012, Дания, драма, HDRip][Лицензия]

Ответить на тему
 

Suxrob89 ®

Стаж: 7 лет

Сообщений: 933

Симпатии: 564

Охота / Jagten- Страна: Дания
Жанр: драма
Год выпуска: 2012
Продолжительность: 01:55:27-Перевод: Профессиональный (многоголосый, закадровый) Лицензия
Субтитры: нет
Режиссер: Томас Винтерберг / Thomas Vinterberg
Сценарий: Тобиас Линдхольм / Tobias Lindholm, Томас Винтерберг / Thomas Vinterberg
Продюсер: Томас Винтерберг / Thomas Vinterberg, Сиссе Граум Олсен / Sisse Graum Jørgensen, Мортен Кауфман / Morten Kaufmann, Джессика Аск / Jessica Ask, Карен Бентзон / Karen Bentzon
Оператор: Шарлотта Брюус Кристенсен / Charlotte Bruus Christensen
Композитор: Николай Эгелунд / Nikolaj Egelund-В ролях: Мадс Миккельсен, Томас Бо Ларсен, Анника Веддеркопп, Лассе Фогельстрём, Суссе Уолд, Анне Луизе Хассинг, Ларс Ранте, Александра Рапапорт, Оле Дюпон, Рикке Бергманн, Катрин Бригманн, Аллан Вибор Кристенсен-Описание: После мучительного развода 40-летний Лукас находит новую подругу, новую работу и стремится восстановить отношения со своим сыном-подростком Маркусом. Но ему что-то мешает... Что-то, казалось бы, незначительное. Замечание, сделанное между прочим. Мелкая ложь. И вот накануне Рождества, когда падает снег и зажигаются огни на елке, ложь разрастается и проникает повсюду, как невидимый вирус. Растет недоверие, и все вокруг оказываются в состоянии коллективной истерии. Лукас вынужден бороться за свою жизнь и достоинство.-Бюджет: $3 800 000
Сборы в России: $22 149
Мировая премьера: 20 мая 2012
Релиз на DVD: 1 апреля 2013, «Новый Диск»- -- Лицам до 17 лет обязательно присутствие взрослого--Качество: HDRip (Исходник BDRip 720p)
Контейнер: AVI
Видео: 720x304 (2.37:1), 24 fps, XviD build 50 ~1348 kbps avg, 0.26 bit/pixel
Аудио: 48 kHz, AC3 Dolby Digital, 3/2 (L,C,R,l,r) + LFE ch, ~448 kbps-

Media Info

Общее
Полное имя : F:\Ohota.2012.P.HDRip.1492.avi
Формат : AVI
Формат/Информация : Audio Video Interleave
Размер файла : 1,46 Гбайт
Продолжительность : 1 ч. 55 м.
Общий поток : 1806 Кбит/сек
Программа кодирования : VirtualDubMod 1.5.10.2 (build 2540/release)
Библиотека кодирования : VirtualDubMod build 2540/release
Видео
Идентификатор : 0
Формат : MPEG-4 Visual
Профиль формата : Advanced [email protected]
Параметр BVOP формата : 1
Параметр QPel формата : Нет
Параметр GMC формата : Без точки перехода
Параметр матрицы формата : Выборочная
Идентификатор кодека : XVID
Идентификатор кодека/Подсказка : XviD
Продолжительность : 1 ч. 55 м.
Битрейт : 1349 Кбит/сек
Ширина : 720 пикселей
Высота : 304 пикселя
Соотношение сторон : 2,35:1
Частота кадров : 24,000 кадра/сек
Цветовое пространство : YUV
Субдискретизация насыщенности : 4:2:0
Битовая глубина : 8 бит
Тип развёртки : Прогрессивная
Метод сжатия : С потерями
Бит/(Пиксели*Кадры) : 0.257
Размер потока : 1,09 Гбайт (75%)
Библиотека кодирования : XviD 1.2.1 (UTC 2008-12-04)
Аудио
Идентификатор : 1
Формат : AC-3
Формат/Информация : Audio Coding 3
Расширение режима : CM (complete main)
Параметр Endianness формата : Big
Идентификатор кодека : 2000
Продолжительность : 1 ч. 55 м.
Вид битрейта : Постоянный
Битрейт : 448 Кбит/сек
Каналы : 6 каналов
Расположение каналов : Front: L C R, Side: L R, LFE
Частота : 48,0 КГц
Битовая глубина : 16 бит
Метод сжатия : С потерями
Размер потока : 370 Мбайт (25%)
Выравнивание : Разделение по промежуткам
Продолжительность промежутка : 42 мс. (1,00 видеокадр)
Время предзагрузки промежутка : 500 мс.

Скриншот с названием фильма

Скриншоты

Создавать темы 28-Мар-2013 05:35

[Профиль]  [ЛС] 

bokal_solutions

Стаж: 6 лет 7 месяцев

Сообщений: 69

Симпатии: 5

На обложке - который играл "плохого" в каком-то Бонде? Или где ещё

Создавать темы 29-Мар-2013 00:04

[Профиль]  [ЛС] 

centuriy

Стаж: 6 лет 1 месяц

Сообщений: 25

Симпатии: 1

o_O рейтинг фильма за шкаливает... срочно качаемс...

Создавать темы 29-Мар-2013 15:05

[Профиль]  [ЛС] 

schweppes

Стаж: 4 года 7 месяцев

Сообщений: 72

del.

Создавать темы 06-Апр-2013 18:29

[Профиль]  [ЛС] 

Fuk3r

Стаж: 5 лет 7 месяцев

Сообщений: 72

Симпатии: 12

Есть кто живой??? Фильм шикарный!!

Создавать темы 04-Окт-2015 07:58

[Профиль]  [ЛС] 
Показать сообщения:    
Ответить на тему

Текущее время: 21-Авг 04:12

Часовой пояс: UTC + 5



Вы не можете начинать темы
Вы не можете отвечать на сообщения
Вы не можете редактировать свои сообщения
Вы не можете удалять свои сообщения
Вы не можете голосовать в опросах
Вы не можете прикреплять файлы к сообщениям
Вы не можете скачивать файлы