Гамбит / Gambit (Майкл Хоффман / Michael Hoffman) [2012, США, комедия, криминал, HDRip][Чистый звук]

Ответить на тему
 

Suxrob89 ®

Стаж: 7 лет 2 месяца

Сообщений: 933

Симпатии: 564

-Гамбит / Gambit- -Страна: США / Air-Edel Associates, Crime Scene Pictures, Michael Lobell Productions
Жанр: комедия, криминал
Год выпуска: 2012
Продолжительность: 01:29:10-Перевод: Профессиональный (дублированный)[Чистый звук]
Cубтитры: нет-Режиссер: Майкл Хоффман / Michael Hoffman-В ролях: Колин Фёрт, Кэмерон Диаз, Алан Рикман, Стэнли Туччи, Клорис Личмен, Том Кортни, Сенем Темиз, Анна Скеллерн, Того Игава, Эрика ЛаРоуз-Описание: История лондонского любителя искусств, задумавшего обмануть богатого коллекционера и заставить его купить фальшивую картину Моне. Для этого он договаривается с разбитной девахой из Техаса. Героиня не имеет никакого отношения к искусству — она работает на родео. Однако она будет выдавать себя за женщину, чей отец раздобыл картину в конце Второй мировой войны.- -Качество видео: HDRip
Формат видео: AVI
Видео: 720x304 (2.37:1), 23.976 fps, XviD build 65 ~1742 kbps avg, 0.32 bit/pixel
Аудио: 48 kHz, AC3, 6 ch, ~448 kbps

MediaInfo

Gambit.2012.D.HDRip.1400MB.Uniongang.avi
Format : AVI
Format/Info : Audio Video Interleave
File size : 1.37 GiB
Duration : 1h 29mn
Overall bit rate : 2 199 Kbps
Writing application : VirtualDubMod 1.5.10.2 (build 2542/release)
Writing library : VirtualDubMod build 2542/release
Video
ID : 0
Format : MPEG-4 Visual
Format profile : Advanced [email protected]
Format settings, BVOP : 2
Format settings, QPel : No
Format settings, GMC : No warppoints
Format settings, Matrix : Default (MPEG)
Muxing mode : Packed bitstream
Codec ID : XVID
Codec ID/Hint : XviD
Duration : 1h 29mn
Bit rate : 1 742 Kbps
Width : 720 pixels
Height : 304 pixels
Display aspect ratio : 2.35:1
Frame rate : 23.976 fps
Color space : YUV
Chroma subsampling : 4:2:0
Bit depth : 8 bits
Scan type : Progressive
Compression mode : Lossy
Bits/(Pixel*Frame) : 0.332
Stream size : 1.08 GiB (79%)
Writing library : XviD 1.2.1 (UTC 2008-12-04)
Audio
ID : 1
Format : AC-3
Format/Info : Audio Coding 3
Mode extension : CM (complete main)
Format settings, Endianness : Big
Codec ID : 2000
Duration : 1h 29mn
Bit rate mode : Constant
Bit rate : 448 Kbps
Channel(s) : 6 channels
Channel positions : Front: L C R, Side: L R, LFE
Sampling rate : 48.0 KHz
Bit depth : 16 bits
Compression mode : Lossy
Stream size : 286 MiB (20%)
Alignment : Split accross interleaves
Interleave, duration : 42 ms (1.00 video frame)
Interleave, preload duration : 500 ms

Скриншот c названием фильма

Скриншоты

Создавать темы 28-Мар-2013 16:50

[Профиль]  [ЛС] 

Lion31

Стаж: 6 лет 8 месяцев

Сообщений: 83

Симпатии: 2

Suxrob89, Спасибо

Создавать темы 28-Мар-2013 17:28

[Профиль]  [ЛС] 

SNIL

Стаж: 5 лет 9 месяцев

Сообщений: 2624

Симпатии: 341

Качнём! СПС!

Создавать темы 28-Мар-2013 17:38

[Профиль]  [ЛС] 

uTorrent

Стаж: 5 лет

Сообщений: 149

Симпатии: 1

Я смотрел. стоит посмотреть! боюсь излишни комментарии так как за это могут дать бан. так бывало. в наше время тяжело высказать свое мнение о фильме

Создавать темы 28-Мар-2013 17:54

[Профиль]  [ЛС] 

SNIL

Стаж: 5 лет 9 месяцев

Сообщений: 2624

Симпатии: 341

uTorrent, Ну почти все фильмы с Кэмерон Диаз хороши! (Так что я даже не задумаваюсь о пригодности фильма)

Создавать темы 28-Мар-2013 18:55

[Профиль]  [ЛС] 

ruslanvega

Стаж: 6 лет 8 месяцев

Сообщений: 13

Я люблю Кэмерон Диаз

Создавать темы 28-Мар-2013 20:30

[Профиль]  [ЛС] 

ZeroX

Стаж: 5 лет 7 месяцев

Сообщений: 146

Симпатии: 3

ПОмогу с раздачей!

Создавать темы 28-Мар-2013 20:39

[Профиль]  [ЛС] 

SNIL

Стаж: 5 лет 9 месяцев

Сообщений: 2624

Симпатии: 341

Кстати вопрос: с семьёй можно смотреть? похабшины нету?

Создавать темы 28-Мар-2013 21:12

[Профиль]  [ЛС] 

ZeroX

Стаж: 5 лет 7 месяцев

Сообщений: 146

Симпатии: 3

SNIL, пока еще не смотрел, вот трейлер http://mover.uz/watch/JOC80nFj/

Создавать темы 28-Мар-2013 21:15

[Профиль]  [ЛС] 
Показать сообщения:    
Ответить на тему

Текущее время: 21-Окт 10:05

Часовой пояс: UTC + 5



Вы не можете начинать темы
Вы не можете отвечать на сообщения
Вы не можете редактировать свои сообщения
Вы не можете удалять свои сообщения
Вы не можете голосовать в опросах
Вы не можете прикреплять файлы к сообщениям
Вы не можете скачивать файлы