Побег с планеты Земля / Escape from Planet Earth (Кэллан Брукнер) [2013, мультфильм, фантастика, комедия, приключения, семейный, DVDRip][лицензия]

Страницы :  1, 2  След.

Ответить на тему
 

Suxrob89 ®

Стаж: 7 лет 4 месяца

Сообщений: 933

Симпатии: 564

-Побег с планеты Земля / Escape from Planet Earth-«Земные секреты раскрыты чужими!»- Год выпуска: 2013
Страна: США, Канада
Жанр: мультфильм, фантастика, комедия, приключения, семейный
Продолжительность: 01:28:34
Перевод: Дублированный [лицензия]
субтитры: отсутствуют-Режиссёр: Кэллан Брукнер : Callan Brunker-В главных ролях: Брендан Фрейзер, Роб Кордри, Рики Джервэйс, Джонатан Морган Хейт, Джессика Альба, София Вергара, Пол Шеер, Джейсон Симпсон, Сара Джессика Паркер, Даг Абрахамс
Роли дублировали: Иван Жарков, Евгений Стычкин-Описание: На планете Бааб, в самом центре Вселенной, два брата делают всё возможное, чтобы защитить свою галактику. Они — полные противоположности. Если девиз Гарри — «сначала подумай, потом сделай», то отважный Скорч живет по закону «сила есть — ума не надо», что не мешает им слаженно работать. Но однажды они получают сигнал S.O.S. с опасной планеты…под названием Земля. Скорч, сломя голову, бросается на помощь, и, разумеется, влипает в неприятности. Только Гарри может вытащить его из «Зоны 51». Братья откроют множество головокружительных тайн, но смогут ли они сбежать с самой опасной планеты во Вселенной?- -Качество: DVDRip
Формат: AVI
Видео кодек: XviD
Аудио кодек: AC3
Видео: 720x304 (2.37:1), 25 fps, XviD build 50 ~1754 kbps avg, 0.32 bit/pixel
Аудио: 48 kHz, AC3 Dolby Digital, 3/2 (L,C,R,l,r) + LFE ch, ~448 kbps-

Скриншоты

MediaInfo

Общее
Полное имя : D:\ЯЯ\Побег с планеты Земля\Escape from Planet Earth.2013.DVDRip.avi
Формат : AVI
Формат/Информация : Audio Video Interleave
Размер файла : 1,37 Гбайт
Продолжительность : 1 ч. 28 м.
Общий поток : 2212 Кбит/сек
Программа кодирования : VirtualDubMod 1.5.10.3 | www.virtualdub-fr.org || (build 2550/release)
Видео
Идентификатор : 0
Формат : MPEG-4 Visual
Профиль формата : Advanced [email protected]
Параметр BVOP формата : 1
Параметр QPel формата : Нет
Параметр GMC формата : Без точки перехода
Параметр матрицы формата : Выборочная
Идентификатор кодека : XVID
Идентификатор кодека/Подсказка : XviD
Продолжительность : 1 ч. 28 м.
Битрейт : 1755 Кбит/сек
Ширина : 720 пикселей
Высота : 304 пикселя
Соотношение сторон : 2,35:1
Частота кадров : 25,000 кадров/сек
Цветовое пространство : YUV
Субдискретизация насыщенности : 4:2:0
Битовая глубина : 8 бит
Тип развёртки : Прогрессивная
Метод сжатия : С потерями
Бит/(Пиксели*Кадры) : 0.321
Размер потока : 1,09 Гбайт (79%)
Библиотека кодирования : XviD 1.2.1 (UTC 2008-12-04)
Аудио
Идентификатор : 1
Формат : AC-3
Формат/Информация : Audio Coding 3
Расширение режима : CM (complete main)
Идентификатор кодека : 2000
Продолжительность : 1 ч. 28 м.
Вид битрейта : Постоянный
Битрейт : 448 Кбит/сек
Каналы : 6 каналов
Расположение каналов : Front: L C R, Side: L R, LFE
Частота : 48,0 КГц
Битовая глубина : 16 бит
Метод сжатия : С потерями
Размер потока : 284 Мбайт (20%)
Выравнивание : Разделение по промежуткам
Продолжительность промежутка : 40 мс. (1,00 видеокадр)
Время предзагрузки промежутка : 500 мс.


Последний раз редактировалось: Suxrob89 (2013-05-19 06:41), всего редактировалось 2 раз(а)

Создавать темы 29-Мар-2013 18:58

[Профиль]  [ЛС] 

Saske.amir

Стаж: 5 лет 5 месяцев

Сообщений: 257

Симпатии: 6

А я уже посмотрел. Дома, лицензию.

Создавать темы 29-Мар-2013 19:47

[Профиль]  [ЛС] 

Gigabit

Стаж: 5 лет 2 месяца

Сообщений: 89

Симпатии: 8

ПОМАГУ РАЗДАЧОЙ

Создавать темы 29-Мар-2013 20:18

[Профиль]  [ЛС] 

Lion31

Стаж: 6 лет 10 месяцев

Сообщений: 83

Симпатии: 2

Suxrob89, Спасибо

Создавать темы 29-Мар-2013 20:24

[Профиль]  [ЛС] 

SNIL

Стаж: 5 лет 11 месяцев

Сообщений: 2624

Симпатии: 341

СПС

Создавать темы 29-Мар-2013 20:27

[Профиль]  [ЛС] 

xumoyun2550

Стаж: 5 лет 11 месяцев

Сообщений: 98

Симпатии: 2

ПОМАГУ РАЗДАЧОЙ
+1

Создавать темы 29-Мар-2013 22:25

[Профиль]  [ЛС] 

Gigabit

Стаж: 5 лет 2 месяца

Сообщений: 89

Симпатии: 8

Сидов: 44 [ 2 MB/s ] Личеров: 37 [ 698 KB/s ] Подробная статистика пиров Странна !!!!!!

Создавать темы 30-Мар-2013 12:03

[Профиль]  [ЛС] 

ABDURASHIDBOY

Стаж: 4 года 8 месяцев

Сообщений: 12

Симпатии: 1

http://img.tas-ix.net/images/2013/bfca3bc62e04f612357b3094d6cf37e5.jpg Спасибо

Создавать темы 30-Мар-2013 13:25

[Профиль]  [ЛС] 

trip

Стаж: 7 лет

Сообщений: 27

Симпатии: 5

у меня раздается, но не качается! (

Создавать темы 30-Мар-2013 19:19

[Профиль]  [ЛС] 

dyavolica

Стаж: 4 года 10 месяцев

Сообщений: 3

Дайте раздачу плииииз)))

Создавать темы 31-Мар-2013 21:45

[Профиль]  [ЛС] 

nastya1992

Стаж: 5 лет 11 месяцев

Сообщений: 5

Симпатии: 1

Побег С Планеты Земля / Escape From Planet Earth (Кэллан Брукнер) [2013 г., мультфильм, фантастика, комедия, приключения, семейный, BDRip 720p] DUB

Создавать темы 12-Апр-2013 16:09

[Профиль]  [ЛС] 

UBA

Стаж: 5 лет 1 месяц

Сообщений: 26

классный мультик

Создавать темы 14-Апр-2013 20:49

[Профиль]  [ЛС] 

dilshod71

Стаж: 4 года 9 месяцев

Сообщений: 63

Симпатии: 3

skajite kto nibud kak ya mogu vlajit filmi i seriali na tas-ix.net zaranee spasibo

Создавать темы 20-Апр-2013 11:27

[Профиль]  [ЛС] 

KoPoJIb

Стаж: 5 лет 2 месяца

Сообщений: 85

Симпатии: 4

Супер мультик спасипо автору раздаю

Создавать темы 21-Апр-2013 13:29

[Профиль]  [ЛС] 

dikiy

Стаж: 4 года 8 месяцев

Сообщений: 38

Дайте скорсть.

Создавать темы 07-Май-2013 23:56

[Профиль]  [ЛС] 
Показать сообщения:    
Ответить на тему

Текущее время: 18-Дек 19:41

Часовой пояс: UTC + 5



Вы не можете начинать темы
Вы не можете отвечать на сообщения
Вы не можете редактировать свои сообщения
Вы не можете удалять свои сообщения
Вы не можете голосовать в опросах
Вы не можете прикреплять файлы к сообщениям
Вы не можете скачивать файлы