Цель номер один / Zero Dark Thirty (Кэтрин Бигелоу / Kathryn Bigelow) [2012, Боевик, триллер, драма, история, HDRip][лицензия]

Страницы :  1, 2  След.

Ответить на тему
 

Suxrob89 ®

Стаж: 7 лет 1 месяц

Сообщений: 933

Симпатии: 564

--Цель номер один / Zero Dark Thirty-- Страна: США / Annapurna Pictures, Columbia Pictures, First Light Production
Жанр: Боевик, триллер, драма, история
Год выпуска: 2012
Продолжительность: 02:36:59-Перевод: Профессиональный (полное дублирование)[лицензия]-Режиссер: Кэтрин Бигелоу / Kathryn Bigelow-В ролях: Джессика Честейн, Джоэл Эдгертон, Эдгар Рамирез, Марк Стронг, Кайл Чандлер, Дженнифер Или, Джеймс Гандольфини, Стивен Диллэйн, Хэролд Перрино, Джейсон Кларк
Описание: История одной из операций спецслужб США по поимке «террориста N1» Усамы Бен Ладена.- -Качество видео: HDRip
Формат видео: AVI
Видео: 2039 kb/s, 720x384
Аудио: AC3, 448 kb/s (6 ch)

MediaInfo

G:\Cel.nomer.odin.2012.D.HDRip.avi
General
Complete name : G:\Cel.nomer.odin.2012.D.HDRip.avi
Format : AVI
Format/Info : Audio Video Interleave
Format profile : OpenDML
File size : 2.74 GiB
Duration : 2h 36mn
Overall bit rate : 2 494 Kbps
Movie name : Cel.nomer.odin.2012.D.HDRip.IRONCLUB
Director : IRONCLUB
Genre : Drama, History, Thriller
Writing application : VirtualDubMod 1.5.10.2 (build 2540/release)
Original source form/Name : Movie
Copyright : http://ironclub.tv/
Video #0
ID : 0
Format : MPEG-4 Visual
Format profile : Advanced [email protected]
Format settings, BVOP : Yes
Format settings, QPel : No
Format settings, GMC : No warppoints
Format settings, Matrix : Custom
Codec ID : XVID
Codec ID/Hint : XviD
Duration : 2h 36mn
Bit rate : 2 036 Kbps
Width : 720 pixels
Height : 384 pixels
Display aspect ratio : 1.875
Frame rate : 23.976 fps
Color space : YUV
Chroma subsampling : 4:2:0
Bit depth : 8 bits
Scan type : Progressive
Bits/(Pixel*Frame) : 0.307
Stream size : 2.23 GiB (82%)
Writing library : XviD 1.2.1 (UTC 2008-12-04)
Audio #1
ID : 1
Format : AC-3
Format/Info : Audio Coding 3
Mode extension : CM (complete main)
Codec ID : 2000
Duration : 2h 36mn
Bit rate mode : Constant
Bit rate : 448 Kbps
Channel(s) : 6 channels
Channel positions : Front: L C R, Side: L R, LFE
Sampling rate : 48.0 KHz
Bit depth : 16 bits
Stream size : 503 MiB (18%)
Alignment : Split accross interleaves
Interleave, duration : 42 ms (1.00 video frame)
Interleave, preload duration : 500 ms

Скриншоты



Последний раз редактировалось: Suxrob89 (2013-05-19 06:24), всего редактировалось 2 раз(а)

Создавать темы 30-Мар-2013 02:22

[Профиль]  [ЛС] 

Suxrob89 ®

Стаж: 7 лет 1 месяц

Сообщений: 933

Симпатии: 564

Раздача пошла !!!

Создавать темы 30-Мар-2013 03:28

[Профиль]  [ЛС] 

bobkli

Стаж: 4 года 6 месяцев

Сообщений: 27

Симпатии: 1

Кто смотрел стоит качать?

Создавать темы 30-Мар-2013 17:07

[Профиль]  [ЛС] 

chastota

Стаж: 6 лет 5 месяцев

Сообщений: 19

Симпатии: 2

эээээээээээээээ дайте скорость

Создавать темы 30-Мар-2013 17:43

[Профиль]  [ЛС] 

Butty

Стаж: 5 лет

Сообщений: 96

Симпатии: 6

Ну ценители искусства как фильмец ? =)

Создавать темы 31-Мар-2013 12:44

[Профиль]  [ЛС] 

nodirbek_uz

Стаж: 6 лет 10 месяцев

Сообщений: 4

film class

Создавать темы 31-Мар-2013 21:02

[Профиль]  [ЛС] 

ll4ik

Стаж: 5 лет 4 месяца

Сообщений: 50

Симпатии: 3

Очень красноречивые комменты, прям сразу решаешь- качать или не качать. Может кто нибудь отпишеться?

Создавать темы 08-Апр-2013 00:42

[Профиль]  [ЛС] 

Esh

Стаж: 6 лет 10 месяцев

Сообщений: 21

Отпишитесь наконец, скачали 300 чел, и даже не один не ответит ппц.

Создавать темы 11-Апр-2013 12:24

[Профиль]  [ЛС] 

Asadovdiyor

Стаж: 5 лет 8 месяцев

Сообщений: 192

фильм на один просмотр история фэйк...

Создавать темы 11-Апр-2013 21:30

[Профиль]  [ЛС] 

Ildar_Z

Стаж: 4 года 6 месяцев

Сообщений: 1

очень содержателен предыдущий коммент однако. Не согласен абсолютно. Здесь надо учесть что режиссер все же Кетрин Бигелоу, а плохого кино я у неё не помню. Сама история может быть и надумана, но как это снято и игра актеров многого стоит. Не зря фильм номинировался на Оскар по 5-ти номинациям. Предыдущий фильм Бигелоу "Повелитель бури" получил Оскара за лучший фильм, обойдя "Аватар" её бывшего мужа - Кэмерона. Мой совет- посмотреть обязательно.

Создавать темы 11-Апр-2013 23:06

[Профиль]  [ЛС] 

koha1980

Стаж: 4 года 5 месяцев

Сообщений: 6

дайте скорость

Создавать темы 11-Апр-2013 23:27

[Профиль]  [ЛС] 

koha1980

Стаж: 4 года 5 месяцев

Сообщений: 6

ну кто нибуть на раздачу

Создавать темы 11-Апр-2013 23:28

[Профиль]  [ЛС] 

adata

Стаж: 6 лет 4 месяца

Сообщений: 16

стоит качать

Создавать темы 12-Апр-2013 01:10

[Профиль]  [ЛС] 

Asadovdiyor

Стаж: 5 лет 8 месяцев

Сообщений: 192

очень содержателен предыдущий коммент однако. Не согласен абсолютно. Здесь надо учесть что режиссер все же Кетрин Бигелоу, а плохого кино я у неё не помню. Сама история может быть и надумана, но как это снято и игра актеров многого стоит. Не зря фильм номинировался на Оскар по 5-ти номинациям. Предыдущий фильм Бигелоу "Повелитель бури" получил Оскара за лучший фильм, обойдя "Аватар" её бывшего мужа - Кэмерона. Мой совет- посмотреть обязательно.
возможно ты и прав не буду спорить ведь у каждого свой вкус НО разница между фильмами Повелитель бури и этим это как сравнить муху со слоном без обид только...

Создавать темы 12-Апр-2013 15:46

[Профиль]  [ЛС] 

4LIFEIP

Стаж: 4 года 5 месяцев

Сообщений: 127

Симпатии: 1

Автору Респект,но фильм полный бред,Релиз Класс)походу фильмец не очень)..а так скачивать не охота.

Создавать темы 17-Май-2013 22:24

[Профиль]  [ЛС] 
Показать сообщения:    
Ответить на тему

Текущее время: 20-Сен 00:02

Часовой пояс: UTC + 5



Вы не можете начинать темы
Вы не можете отвечать на сообщения
Вы не можете редактировать свои сообщения
Вы не можете удалять свои сообщения
Вы не можете голосовать в опросах
Вы не можете прикреплять файлы к сообщениям
Вы не можете скачивать файлы