Rihanna - Live at iHeartRadio Music Festival [2012 г., Pop, HDTVRip]

Ответить на тему
 

JurPrint ®

Стаж: 4 года 10 месяцев

Сообщений: 28

Симпатии: 9

Rihanna - Live at iHeartRadio Music Festival

Страна: США
Жанр: Pop
Продолжительность: 00:53:54
Год выпуска: 2012 г.
Описание: Выступление Rihanna на фестивале iHeartRadio Music Festival 2012.
Треклист:
01. Only Girl (In The World)
02. Disturbia
03. S&M
04. Cockiness
05. Birthday Cake
06. Talk That Talk
07. Where Have You Been
08. What's My Name
09. Run This Town
10. Live Your Life
11. All Of The Lights
12. Don't Stop The Music
13. Umbrella
14. We Found Love
Источник: собственный рип
Cсылка http://rutracker.org/forum/viewtopic.php?t=4193327
Качество: HDTVRip
Контейнер: MKV
Видео кодек: H.264
Аудио кодек: AC3
Видео: MPEG-4 AVC, 720x400, 16:9, 3476 Kbps, 29.970 fps
Аудио: AC3, 384 Kbps, 48.0 KHz, 2 channels
Главы: да

MediaInfo

General
Unique ID                                : 236007377545657331570037288440453496916 (0xB18D5E17D502802FA46E61FF7DFD8054)
Complete name                            : E:\Site\Rihanna - iHeartRadio Music Festival 2012 HDTVRip-PZK.mkv
Format                                   : Matroska
Format version                           : Version 2
File size                                : 1.45 GiB
Duration                                 : 53mn 54s
Overall bit rate                         : 3 863 Kbps
Movie name                               : Rihanna - iHeartRadio Music Festival 2012 HDTVRip Rihanna1.ru
Encoded date                             : UTC 2012-09-30 12:30:57
Writing application                      : mkvmerge v5.8.0 ('No Sleep / Pillow') built on Sep  2 2012 15:37:04
Writing library                          : libebml v1.2.3 + libmatroska v1.3.0
Video
ID                                       : 1
Format                                   : AVC
Format/Info                              : Advanced Video Codec
Format profile                           : [email protected]
Format settings, CABAC                   : Yes
Format settings, ReFrames                : 16 frames
Codec ID                                 : V_MPEG4/ISO/AVC
Duration                                 : 53mn 54s
Bit rate                                 : 3 476 Kbps
Width                                    : 720 pixels
Height                                   : 400 pixels
Display aspect ratio                     : 16:9
Frame rate mode                          : Constant
Frame rate                               : 29.970 fps
Color space                              : YUV
Chroma subsampling                       : 4:2:0
Bit depth                                : 8 bits
Scan type                                : Progressive
Bits/(Pixel*Frame)                       : 0.403
Stream size                              : 1.28 GiB (88%)
Title                                    : x264 @ 3476 Kbps
Writing library                          : x264 core 128 r2216 198a7ea
Encoding settings                        : cabac=1 / ref=16 / deblock=1:-3:-3 / analyse=0x3:0x113 / me=umh / subme=10 / psy=1 / psy_rd=1.00:0.00 / mixed_ref=1 / me_range=24 / chroma_me=1 / trellis=2 / 8x8dct=1 / cqm=0 / deadzone=21,11 / fast_pskip=1 / chroma_qp_offset=-2 / threads=12 / lookahead_threads=2 / sliced_threads=0 / nr=0 / decimate=1 / interlaced=0 / bluray_compat=0 / constrained_intra=0 / bframes=8 / b_pyramid=2 / b_adapt=2 / b_bias=0 / direct=3 / weightb=1 / open_gop=0 / weightp=2 / keyint=300 / keyint_min=29 / scenecut=40 / intra_refresh=0 / rc_lookahead=60 / rc=2pass / mbtree=1 / bitrate=3476 / ratetol=1.0 / qcomp=0.60 / qpmin=10 / qpmax=51 / qpstep=4 / cplxblur=20.0 / qblur=0.5 / ip_ratio=1.40 / aq=1:1.00
Language                                 : English
Default                                  : Yes
Forced                                   : No
Audio
ID                                       : 2
Format                                   : AC-3
Format/Info                              : Audio Coding 3
Mode extension                           : CM (complete main)
Format settings, Endianness              : Big
Codec ID                                 : A_AC3
Duration                                 : 53mn 54s
Bit rate mode                            : Constant
Bit rate                                 : 384 Kbps
Channel(s)                               : 2 channels
Channel positions                        : Front: L R
Sampling rate                            : 48.0 KHz
Bit depth                                : 16 bits
Compression mode                         : Lossy
Stream size                              : 148 MiB (10%)
Title                                    : AC3 2.0 @ 384 Kbps
Language                                 : English
Default                                  : Yes
Forced                                   : No
Menu
00:00:00.000                             : en:Interview
00:01:33.000                             : en:Intro
00:03:48.000                             : en:01. Only Girl (In The World)
00:07:57.000                             : en:02. Disturbia
00:11:18.000                             : en:03. S&M
00:16:24.000                             : en:04. Cockiness
00:18:54.000                             : en:05. Birthday Cake
00:21:43.000                             : en:06. Talk That Talk
00:24:29.000                             : en:----
00:25:37.000                             : en:07. Where Have You Been
00:29:58.000                             : en:08. What's My Name
00:33:29.000                             : en:09. Run This Town
00:34:58.000                             : en:10. Live Your Life
00:36:58.000                             : en:11. All Of The Lights
00:38:19.000                             : en:12. Don't Stop The Music
00:43:52.000                             : en:13. Umbrella
00:48:19.000                             : en:14. We Found Love

Скриншоты

Создавать темы 30-Мар-2013 12:47

[Профиль]  [ЛС] 

NoobMan

Стаж: 5 лет 4 месяца

Сообщений: 16

ЧЁТКО! Спасибо Долго ждал!

Создавать темы 17-Апр-2013 12:54

[Профиль]  [ЛС] 
Показать сообщения:    
Ответить на тему

Текущее время: 21-Авг 15:22

Часовой пояс: UTC + 5



Вы не можете начинать темы
Вы не можете отвечать на сообщения
Вы не можете редактировать свои сообщения
Вы не можете удалять свои сообщения
Вы не можете голосовать в опросах
Вы не можете прикреплять файлы к сообщениям
Вы не можете скачивать файлы