Дракула 3D / Dracula (Дарио Ардженто / Dario Argento) [2012, Италия, Ужасы, HDRip] VO + Original Eng

Ответить на тему
 

Suxrob89 ®

Стаж: 7 лет 4 месяца

Сообщений: 933

Симпатии: 564

--Дракула 3D / Dracula-- Страна: Италия
Жанр: Ужасы
Год выпуска: 2012
Продолжительность: 01:45:29
Перевод: Любительский (одноголосый, закадровый)
Cубтитры: нет
Оригинальная аудиодорожка: английский-Режиссер: Дарио Ардженто / Dario Argento-В ролях: Азия Ардженто, Рутгер Хауэр, Томас Кречманн, Марта Гастини, Унакс Угальде, Мириам Джованелли, Морган Слемп, Мария Кристина Хеллер, Аугусто Дзукки, Джузеппе Ло Консоле...-Описание: Трансильвания, 1893 год. Однажды ночью пара молодых влюбленных Таня и Милош тайно встречаются в лесах, прилегающих к городку Пассбург у подножия Карпатских гор. По дороге домой Таню преследует «тёмная тень», которая убивает её. В те дни молодой библиотекарь Джонатан Харкер прибывает в деревню, нанятый графом Дракулой, дворянином из этого округа. Тело Тани таинственно исчезает с кладбища...-Качество: HDRip
Формат: AVI
Видео: XVID; 720x304; 1 500 Kbps; 23.976 fps;
Аудио 1: MP3; 2 ch; 128 Kbps; [Russian]
Аудио 2: AC-3; 2 ch; 256 Kbps; [English]

MediaInfo

G:\Dracula.2012.L1.HDRip.avi
General
Complete name : G:\Dracula.2012.L1.HDRip.avi
Format : AVI
Format/Info : Audio Video Interleave
File size : 1.46 GiB
Duration : 1h 50mn
Overall bit rate : 1 898 Kbps
Writing application : VirtualDubModRus 1.5.10.2 (build 2542/release)
Writing library : VirtualDubMod build 2542/release
Video #0
ID : 0
Format : MPEG-4 Visual
Format profile : Advanced [email protected]
Format settings, BVOP : Yes
Format settings, QPel : No
Format settings, GMC : No warppoints
Format settings, Matrix : Custom
Codec ID : XVID
Codec ID/Hint : XviD
Duration : 1h 50mn
Bit rate : 1 500 Kbps
Width : 720 pixels
Height : 304 pixels
Display aspect ratio : 2.35:1
Frame rate : 23.976 fps
Color space : YUV
Chroma subsampling : 4:2:0
Bit depth : 8 bits
Scan type : Progressive
Bits/(Pixel*Frame) : 0.286
Stream size : 1.15 GiB (79%)
Writing library : XviD 1.2.1 (UTC 2008-12-04)
Audio #1
ID : 1
Format : MPEG Audio
Format version : Version 1
Format profile : Layer 3
Mode : Joint stereo
Mode extension : MS Stereo
Codec ID : 55
Codec ID/Hint : MP3
Duration : 1h 50mn
Bit rate mode : Constant
Bit rate : 128 Kbps
Channel(s) : 2 channels
Sampling rate : 48.0 KHz
Video delay : 2s 0ms
Stream size : 101 MiB (7%)
Alignment : Split accross interleaves
Interleave, duration : 42 ms (1.00 video frame)
Interleave, preload duration : 500 ms
Audio #2
ID : 2
Format : AC-3
Format/Info : Audio Coding 3
Mode extension : CM (complete main)
Codec ID : 2000
Duration : 1h 50mn
Bit rate mode : Constant
Bit rate : 256 Kbps
Channel(s) : 2 channels
Channel positions : Front: L R
Sampling rate : 48.0 KHz
Bit depth : 16 bits
Stream size : 201 MiB (13%)
Alignment : Aligned on interleaves
Interleave, duration : 42 ms (1.00 video frame)
Interleave, preload duration : 512 ms

Скриншот c названием фильма

Скриншоты



Последний раз редактировалось: Suxrob89 (2013-03-31 17:34), всего редактировалось 1 раз

Создавать темы 31-Мар-2013 16:36

[Профиль]  [ЛС] 

andiman

Стаж: 5 лет 1 месяц

Сообщений: 134

Симпатии: 1

И что нового в сюжете? Уже было вариаций на эту тему немерено, еще с черно-белых времен...))) Не в обиду релизеру.

Создавать темы 09-Апр-2013 23:36

[Профиль]  [ЛС] 

beck8788

Стаж: 7 лет 7 месяцев

Сообщений: 88

Симпатии: 1

а где скрини?

Создавать темы 10-Апр-2013 09:31

[Профиль]  [ЛС] 
Показать сообщения:    
Ответить на тему

Текущее время: 13-Дек 17:56

Часовой пояс: UTC + 5



Вы не можете начинать темы
Вы не можете отвечать на сообщения
Вы не можете редактировать свои сообщения
Вы не можете удалять свои сообщения
Вы не можете голосовать в опросах
Вы не можете прикреплять файлы к сообщениям
Вы не можете скачивать файлы