Дитя / The Child (Жолт Бач) [2012 г., Триллер, DVDRip]

Ответить на тему
 

Nosferatu ®

Стаж: 4 года 5 месяцев

Сообщений: 79

Симпатии: 5

Дитя / The Child- -Год выпуска: 2012
Страна: США
Жанр: Триллер
Продолжительность: 01:58:47
Перевод: Любительский (двухголосый)-Режиссер: Жолт Бач-В ролях:
Клеменс Шик, Питер Грин, Рейнер Шёне, Санни Мабри, Эрик Робертс, Кристиан Траумер, Бен Бекер, Ивонн Мария Шефер, Даниэла Циглер, Дитер Ландурис-Описание:
Известный адвокат Роберт Стерн знакомится с десятилетним мальчиком Саймоном. У Саймона опухоль мозга и жить ему осталось недолго, но он чувствует, что у него особая миссия — ему предстоит убить плохого человека. Каково же удивление Роберта, когда мальчик приводит его прямиком к трупу человека, которого он якобы убил пятнадцать лет назад. И это лишь начало целой череды загадочных событий, ожидающих героев этого фильма на пути к разгадке зловещей тайны.-Качество: DVDRip
Формат: AVI
Видео кодек: XviD
Аудио кодек: MP3
Видео: Xvid 640x272 24fps [Stream 00]
Аудио: MP3 48000Hz stereo 128kbps [Stream 01]-

Media Info

Format : AVI
Format/Info : Audio Video Interleave
File size : 700 MiB
Duration : 1h 58mn
Overall bit rate : 824 Kbps
Writing application : VirtualDubMod 1.5.10.2 (build 2540/release)
Writing library : VirtualDubMod build 2540/release
Video
ID : 0
Format : MPEG-4 Visual
Format profile : Advanced [email protected]
Format settings, BVOP : 2
Format settings, QPel : No
Format settings, GMC : No warppoints
Format settings, Matrix : Custom
Codec ID : XVID
Codec ID/Hint : XviD
Duration : 1h 58mn
Bit rate : 686 Kbps
Width : 640 pixels
Height : 272 pixels
Display aspect ratio : 2.35:1
Frame rate : 24.000 fps
Color space : YUV
Chroma subsampling : 4:2:0
Bit depth : 8 bits
Scan type : Progressive
Compression mode : Lossy
Bits/(Pixel*Frame) : 0.164
Stream size : 583 MiB (83%)
Writing library : XviD 1.2.1 (UTC 2008-12-04)
Audio
ID : 1
Format : MPEG Audio
Format version : Version 1
Format profile : Layer 3
Mode : Joint stereo
Mode extension : MS Stereo
Codec ID : 55
Codec ID/Hint : MP3
Duration : 1h 58mn
Bit rate mode : Constant
Bit rate : 128 Kbps
Channel(s) : 2 channels
Sampling rate : 48.0 KHz
Compression mode : Lossy
Stream size : 109 MiB (16%)
Alignment : Aligned on interleaves
Interleave, duration : 42 ms (1.00 video frame)
Interleave, preload duration : 504 ms

ScreenShots




Приятного просмотра! az


Последний раз редактировалось: Nosferatu (2013-03-31 19:20), всего редактировалось 1 раз

Создавать темы 31-Мар-2013 18:42

[Профиль]  [ЛС] 
Показать сообщения:    
Ответить на тему

Текущее время: 19-Авг 08:47

Часовой пояс: UTC + 5



Вы не можете начинать темы
Вы не можете отвечать на сообщения
Вы не можете редактировать свои сообщения
Вы не можете удалять свои сообщения
Вы не можете голосовать в опросах
Вы не можете прикреплять файлы к сообщениям
Вы не можете скачивать файлы