Флаги наших отцов / Flags of Our Fathers (Клинт Иствуд) [2006 г., HD, Военный, Драма, История, HDRip 720p]

Ответить на тему
 

shooter218_11 ®

Стаж: 5 лет 6 месяцев

Сообщений: 26

Симпатии: 3

Флаги наших отцов / Flags of Our Fathers
Год выпуска: 2006
Страна: США
Жанр: HD, Военный, Драма, История
Продолжительность: 02:11:53
Перевод: Профессиональный (полное дублирование)
Режиссер: Клинт Иствуд
В ролях: Райан Филипп, Джесси Брэдфорд, Адам Бич, Джон Бенжамин Хикки, Джон Слэттери, Барри Пеппер, Джейми Белл, Пол Уокер, Роберт Патрик, Нил МакДонаф
Описание: История жизни шести американских пехотинцев, водрузивших флаг на вершине горы Сурибачи во время битвы при Иводзиме. Операция по овладению островом Иводзима стала переломным моментом в ходе Тихоокеанской кампании США против Японии весной 1945 года…
Качество: HDRip 720p
Формат: MKV
Видео кодек: MPEG4 Video (H264)
Аудио кодек: Dolby AC3
Видео: MPEG4 Video (H264) 1280x528 23.98fps [Undetermined (Video 1)]
Аудио: Dolby AC3 48000Hz 6ch [Russian, MVO, R5, AC3 384 kbps (Audio 1)]
Аудио: Dolby AC3 48000Hz 6ch [Russian, MVO, Glanc, 448 kbps (Audio 2)]
Аудио: DTS 48000Hz 6ch [Russian, AVO, Nemahov, DTS 768 kbps (Audio 3)]
Аудио: DTS 48000Hz 6ch [English, 1 510 Kbps (Audio 4)]
Subtitle: UTF-8 [Russian (Subtitle 1)]

Media info

General
Complete name : D:\Flags.Of.Our.Fathers.2006.BDRip.720p.DVD5.2xMVO.AVO.eng.x264.mkv
Format : Matroska
File size : 5.75 GiB
Duration : 2h 11mn
Overall bit rate : 6 246 Kbps
Encoded date : UTC 2010-07-21 20:06:33
Writing application : mkvmerge v3.4.0 ('Rapunzel') сборка от May 15 2010 09:38:20
Writing library : libebml v0.8.0 + libmatroska v0.9.0
Video
ID : 1
Format : AVC
Format/Info : Advanced Video Codec
Format profile : [email protected]
Format settings, CABAC : Yes
Format settings, ReFrames : 11 frames
Muxing mode : Container [email protected]
Codec ID : V_MPEG4/ISO/AVC
Duration : 2h 11mn
Bit rate : 3 026 Kbps
Nominal bit rate : 3 151 Kbps
Width : 1 280 pixels
Height : 528 pixels
Display aspect ratio : 2.40:1
Frame rate : 23.976 fps
Resolution : 8 bits
Colorimetry : 4:2:0
Scan type : Progressive
Bits/(Pixel*Frame) : 0.187
Stream size : 2.78 GiB (48%)
Writing library : x264 core 100 r1659 57b2e56
Encoding settings : cabac=1 / ref=11 / deblock=1:-3:-3 / analyse=0x3:0x113 / me=umh / subme=10 / psy=1 / psy_rd=1.00:0.20 / mixed_ref=1 / me_range=64 / chroma_me=1 / trellis=2 / 8x8dct=1 / cqm=0 / deadzone=21,11 / fast_pskip=0 / chroma_qp_offset=-3 / threads=6 / sliced_threads=0 / nr=0 / decimate=1 / interlaced=0 / constrained_intra=0 / bframes=6 / b_pyramid=2 / b_adapt=2 / b_bias=0 / direct=3 / weightb=1 / open_gop=0 / weightp=2 / keyint=250 / keyint_min=25 / scenecut=40 / intra_refresh=0 / rc_lookahead=40 / rc=2pass / mbtree=0 / bitrate=3151 / ratetol=1.0 / qcomp=0.60 / qpmin=10 / qpmax=51 / qpstep=4 / cplxblur=20.0 / qblur=0.5 / vbv_maxrate=50000 / vbv_bufsize=62500 / ip_ratio=1.40 / pb_ratio=1.30 / aq=1:1.00 / nal_hrd=none
Audio #1
ID : 2
Format : AC-3
Format/Info : Audio Coding 3
Codec ID : A_AC3
Duration : 2h 11mn
Bit rate mode : Constant
Bit rate : 384 Kbps
Channel(s) : 6 channels
Channel positions : Front: L C R, Surround: L R, LFE
Sampling rate : 48.0 KHz
Video delay : 5s 84ms
Stream size : 362 MiB (6%)
Title : MVO, R5, AC3 384 kbps
Language : Russian
Audio #2
ID : 3
Format : AC-3
Format/Info : Audio Coding 3
Codec ID : A_AC3
Duration : 2h 11mn
Bit rate mode : Constant
Bit rate : 448 Kbps
Channel(s) : 6 channels
Channel positions : Front: L C R, Surround: L R, LFE
Sampling rate : 48.0 KHz
Video delay : 5s 144ms
Stream size : 423 MiB (7%)
Title : MVO, Glanc, 448 kbps
Language : Russian
Audio #3
ID : 4
Format : DTS
Format/Info : Digital Theater Systems
Codec ID : A_DTS
Duration : 2h 11mn
Bit rate mode : Constant
Bit rate : 755 Kbps
Channel(s) : 6 channels
Channel positions : Front: L C R, Surround: L R, LFE
Sampling rate : 48.0 KHz
Resolution : 24 bits
Video delay : 4s 948ms
Stream size : 712 MiB (12%)
Title : AVO, Nemahov, DTS 768 kbps
Language : Russian
Audio #4
ID : 5
Format : DTS
Format/Info : Digital Theater Systems
Codec ID : A_DTS
Duration : 2h 11mn
Bit rate mode : Constant
Bit rate : 1 510 Kbps
Channel(s) : 6 channels
Channel positions : Front: L C R, Surround: L R, LFE
Sampling rate : 48.0 KHz
Resolution : 24 bits
Stream size : 1.39 GiB (24%)
Language : English
Text #1
ID : 6
Format : UTF-8
Codec ID : S_TEXT/UTF8
Codec ID/Info : UTF-8 Plain Text
Language : Russian
Text #2
ID : 7
Format : UTF-8
Codec ID : S_TEXT/UTF8
Codec ID/Info : UTF-8 Plain Text
Language : English

Скриншоты






Последний раз редактировалось: shooter218_11 (2013-03-31 23:13), всего редактировалось 6 раз(а)

Создавать темы 31-Мар-2013 20:00

[Профиль]  [ЛС] 

Kozma

Стаж: 4 года 10 месяцев

Сообщений: 4

shooter218_11, привет, давно хотел посмотреть этот фильм,а народу совсем нет:)

Создавать темы 31-Авг-2013 17:54

[Профиль]  [ЛС] 
Показать сообщения:    
Ответить на тему

Текущее время: 24-Ноя 12:42

Часовой пояс: UTC + 5



Вы не можете начинать темы
Вы не можете отвечать на сообщения
Вы не можете редактировать свои сообщения
Вы не можете удалять свои сообщения
Вы не можете голосовать в опросах
Вы не можете прикреплять файлы к сообщениям
Вы не можете скачивать файлы