Врата ада / Hellgate (Джон Пенни / John Penney) [2011, США, Таиланд, триллер, DVDRip] DVO + Original Eng

Ответить на тему
 

Suxrob89 ®

Стаж: 7 лет 1 месяц

Сообщений: 933

Симпатии: 564

--Врата ада / Hellgate / Shadows-- Страна: США, Таиланд
Жанр: триллер
Год выпуска: 2011
Продолжительность: 01:33:19
Перевод: Любительский (двухголосый закадровый) [DeadSno & den904]
Cубтитры: нет
Оригинальная аудиодорожка: английский-Режиссер: Джон Пенни / John Penney-В ролях: Лиз Бернетт, Кэри Элвис, Джон Хенбест, Уильям Хёрт, Плой Хиндачоте, Нора, Паула Тейлор, Вияда Умарин, Эрих Флешман-Описание: Приехав к тестю в Тайланд, Джеф вместе с семьей попадает в страшную автомобильную катастрофу. Очнувшись после глубокой комы, он узнает, что выжил только он...Постепенно Джеф начинает замечать за собой странности: он не чувствует горя и скорби, его отражение начинает исчезать в зеркале, а в темноте его преследуют страшные призраки и демоны. В поисках причин происходящего, он обращается к шаманке, которая объясняет ему причину происходящего: душа Джефа осталась в ловушке теневого мира вместе с семьей. И теперь ему предстоит тяжелое и опасное путешествие в Ад, чтобы спасти семью и самого себя.- -Качество видео: DVDRip
Формат видео: AVI
Видео: 720x400 (1.80:1), 23.976 fps, XviD build 50 ~905 kbps avg, 0.13 bit/pixel
Аудио: 48 kHz, MPEG Layer 3, 2 ch, ~128.00 kbps avg
Аудио 2: 48 kHz, MPEG Layer 3, 2 ch, ~128.00 kbps avg

MediaInfo

General
Complete name : K:\Фильмография\Hellgate.DVDRip. СПАМ
Format : AVI
Format/Info : Audio Video Interleave
File size : 785 MiB
Duration : 1h 33mn
Overall bit rate : 1 177 Kbps
Writing application : VirtualDubMod 1.5.10.3 | www.virtualdub-fr.org || (build 2550/release)
Writing library : VirtualDubMod build 2550/release
Video
ID : 0
Format : MPEG-4 Visual
Format profile : Advanced [email protected]
Format settings, BVOP : 1
Format settings, QPel : No
Format settings, GMC : No warppoints
Format settings, Matrix : Default (H.263)
Codec ID : XVID
Codec ID/Hint : XviD
Duration : 1h 33mn
Bit rate : 907 Kbps
Width : 720 pixels
Height : 400 pixels
Display aspect ratio : 16:9
Frame rate : 23.976 fps
Color space : YUV
Chroma subsampling : 4:2:0
Bit depth : 8 bits
Scan type : Progressive
Compression mode : Lossy
Bits/(Pixel*Frame) : 0.131
Stream size : 605 MiB (77%)
Writing library : XviD 1.2.1 (UTC 2008-12-04)
Audio #1
ID : 1
Format : MPEG Audio
Format version : Version 1
Format profile : Layer 3
Mode : Joint stereo
Mode extension : MS Stereo
Codec ID : 55
Codec ID/Hint : MP3
Duration : 1h 33mn
Bit rate mode : Constant
Bit rate : 128 Kbps
Channel(s) : 2 channels
Sampling rate : 48.0 KHz
Compression mode : Lossy
Stream size : 85.4 MiB (11%)
Alignment : Aligned on interleaves
Interleave, duration : 42 ms (1.00 video frame)
Interleave, preload duration : 504 ms
Audio #2
ID : 2
Format : MPEG Audio
Format version : Version 1
Format profile : Layer 3
Mode : Joint stereo
Mode extension : MS Stereo
Codec ID : 55
Codec ID/Hint : MP3
Duration : 1h 33mn
Bit rate mode : Constant
Bit rate : 128 Kbps
Channel(s) : 2 channels
Sampling rate : 48.0 KHz
Compression mode : Lossy
Stream size : 85.4 MiB (11%)
Alignment : Split accross interleaves
Interleave, duration : 42 ms (1.00 video frame)
Interleave, preload duration : 500 ms
Writing library : LAME3.99r
Encoding settings : -m j -V 4 -q 2 -lowpass 17 -b 128

Скриншот c названием фильма

Скриншоты

Создавать темы 01-Апр-2013 07:01

[Профиль]  [ЛС] 
Показать сообщения:    
Ответить на тему

Текущее время: 25-Сен 00:28

Часовой пояс: UTC + 5



Вы не можете начинать темы
Вы не можете отвечать на сообщения
Вы не можете редактировать свои сообщения
Вы не можете удалять свои сообщения
Вы не можете голосовать в опросах
Вы не можете прикреплять файлы к сообщениям
Вы не можете скачивать файлы