Отряд героев / Company of Heroes (Дон Майкл Пол) [2013, боевик, военный, HDRip][Лицензия]

Ответить на тему
 

Suxrob89 ®

Стаж: 7 лет 4 месяца

Сообщений: 933

Симпатии: 564

-Отряд героев / Company of Heroes- Страна: США
Жанр: боевик, военный
Год выпуска: 2013
Продолжительность: 01:40:27
Перевод: Профессиональный (многоголосый закадровый)[лицензия]
Cубтитры: нет
Оригинальная аудиодорожка: нет-Режиссер: Дон Майкл Пол / Don Michael Paul-В ролях: Винни Джонс, Нил МакДонаф, Том Сайзмор, Юрген Прохнов, Чад Коллинз, Мелиа Крейлинг
Описание: Американские солдаты, попавшие в тыл врага во время Второй мировой войны, узнают, что у Гитлера есть модернизированная бомба. Несмотря на все трудности, они отправляются на поиски ученого, отвечающего за эту бомбу.- -Качество видео: HDRip
Формат видео: AVI
Видео: Xvid 720x400 23.98fps 1 683 Kbps
Аудио: Dolby AC3 48000Hz 6ch 384kbps-

MediaInfo

Полное имя : Otrjad.geroev.2013.P.HDRip.avi
Формат : AVI
Формат/Информация : Audio Video Interleave
Размер файла : 1,46 Гбайт
Продолжительность : 1 ч. 40 м.
Общий поток : 2076 Кбит/сек
Программа кодирования : VirtualDubMod 1.5.10.2 (build 2540/release)
Видео
Идентификатор : 0
Формат : MPEG-4 Visual
Профиль формата : Advanced [email protected]
Параметр BVOP формата : 1
Параметр QPel формата : Нет
Параметр GMC формата : Без точки перехода
Параметр матрицы формата : Выборочная
Идентификатор кодека : XVID
Идентификатор кодека/Подсказка : XviD
Продолжительность : 1 ч. 40 м.
Битрейт : 1683 Кбит/сек
Ширина : 720 пикселей
Высота : 400 пикселей
Соотношение сторон : 16:9
Частота кадров : 23,976 кадра/сек
Цветовое пространство : YUV
Субдискретизация насыщенности : 4:2:0
Битовая глубина : 8 бит
Тип развёртки : Прогрессивная
Метод сжатия : С потерями
Бит/(Пиксели*Кадры) : 0.244
Размер потока : 1,18 Гбайт (81%)
Библиотека кодирования : XviD 1.2.1 (UTC 2008-12-04)
Аудио
Идентификатор : 1
Формат : AC-3
Формат/Информация : Audio Coding 3
Расширение режима : CM (complete main)
Параметр Endianness формата : Big
Идентификатор кодека : 2000
Продолжительность : 1 ч. 40 м.
Вид битрейта : Постоянный
Битрейт : 384 Кбит/сек
Каналы : 6 каналов
Расположение каналов : Front: L C R, Side: L R, LFE
Частота : 48,0 КГц
Битовая глубина : 16 бит
Метод сжатия : С потерями
Размер потока : 276 Мбайт (18%)
Выравнивание : Разделение по промежуткам
Продолжительность промежутка : 42 мс. (1,00 видеокадр)
Время предзагрузки промежутка : 500 мс.

Скриншот c названием фильма

http://img.uz/d/2013/04/515db8ad94526.jpg

Скриншоты



Создавать темы 04-Апр-2013 22:34

[Профиль]  [ЛС] 

Espucho

Стаж: 5 лет 10 месяцев

Сообщений: 37

Suxrob89, +

Создавать темы 04-Апр-2013 23:46

[Профиль]  [ЛС] 

james

Стаж: 5 лет 10 месяцев

Сообщений: 113

Симпатии: 2

раздача когда будет ?? фильм хороший стоит смотреть !!!

Создавать темы 05-Апр-2013 14:31

[Профиль]  [ЛС] 

Xomid

Стаж: 6 лет 7 месяцев

Сообщений: 34

Симпатии: 4

Suxrob89, сухроб ты можешь дать скорость

Создавать темы 13-Апр-2013 12:37

[Профиль]  [ЛС] 

Rebelous

Стаж: 5 лет 11 месяцев

Сообщений: 12

Фильм даже не удостоился комментариев, а мне актриса понравилась, ништякская...

Создавать темы 15-Апр-2013 20:34

[Профиль]  [ЛС] 

Rebelous

Стаж: 5 лет 11 месяцев

Сообщений: 12

аааа, я не увидел другую раздачу...

Создавать темы 15-Апр-2013 20:38

[Профиль]  [ЛС] 

abilaykhan12

Стаж: 5 лет 3 месяца

Сообщений: 116

Симпатии: 2

Убери 3 скрин этот скрин из Охотники За Ганстеров))))))))))

Создавать темы 17-Апр-2013 12:41

[Профиль]  [ЛС] 

андрей10

Стаж: 4 года 8 месяцев

Сообщений: 2

фильм гавно,для детей самое то

Создавать темы 02-Май-2013 14:36

[Профиль]  [ЛС] 
Показать сообщения:    
Ответить на тему

Текущее время: 18-Дек 21:23

Часовой пояс: UTC + 5



Вы не можете начинать темы
Вы не можете отвечать на сообщения
Вы не можете редактировать свои сообщения
Вы не можете удалять свои сообщения
Вы не можете голосовать в опросах
Вы не можете прикреплять файлы к сообщениям
Вы не можете скачивать файлы