Невероятный Бёрт Уандерстоун / The Incredible Burt Wonderstone (Дон Скардино / Don Scardino) [2013, США, Комедия, HDTVRip] AVO (А. Дольский)

Ответить на тему
 

Suxrob89 ®

Стаж: 7 лет 3 месяца

Сообщений: 933

Симпатии: 564

-Невероятный Бёрт Уандерстоун / The Incredible Burt Wonderstone- Страна: США
Жанр: Комедия
Год выпуска: 2013
Продолжительность: 01:34:46
Перевод: Авторский (одноголосый закадровый) А. Дольский
Cубтитры: Корейские (вшитые не отключаемые)
Оригинальная аудиодорожка: нет-Режиссер: Дон Скардино / Don Scardino-В ролях: Стив Карелл, Стив Бушеми, Оливия Уайлд, Джим Керри, Джеймс Гандольфини, Алан Аркин, Джей Мор, Михаэль Хербиг, Мэйсон Кук, Люк Ванек-Описание: Фильм рассказывает историю двух фокусников-конкурентов в Лас-Вегасе. Берт Уандерстоун однажды во время исполнения номера лишается напарника, и все оставшееся время пытается вернуть себе мотивацию и вернуться к любимому занятию.- -Качество видео: HDTVRip
Формат видео: AVI
Видео: Xvid 640x272 23.976fps 894kbps
Аудио: MPEG Audio Layer 3 48000Hz stereo 128kbps

MediaInfo

Общее
Полное имя : D:\Торренты\Never0jatnij.Burt.W0nderst0ne.2013.P1.HDTVRip.700MB.avi
Формат : AVI
Формат/Информация : Audio Video Interleave
Размер файла : 700 Мбайт
Продолжительность : 1 ч. 34 м.
Общий поток : 1032 Кбит/сек
Программа кодирования : VirtualDubMod 1.5.10.2 (build 2540/release)
Библиотека кодирования : VirtualDubMod build 2540/release
Видео
Идентификатор : 0
Формат : MPEG-4 Visual
Профиль формата : Advanced [email protected]
Параметр BVOP формата : 2
Параметр QPel формата : Нет
Параметр GMC формата : Без точки перехода
Параметр матрицы формата : Default (MPEG)
Идентификатор кодека : XVID
Идентификатор кодека/Подсказка : XviD
Продолжительность : 1 ч. 34 м.
Битрейт : 895 Кбит/сек
Ширина : 640 пикс.
Высота : 272 пикс.
Соотношение сторон : 2,35:1
Частота кадров : 23,976 кадр/сек
Цветовое пространство : YUV
Подвыборка цветности : 4:2:0
Битовая глубина : 8 бит
Тип развёртки : Прогрессивная
Метод сжатия : С потерями
Бит/(Пиксели*Кадры) : 0.214
Размер потока : 607 Мбайт (87%)
Библиотека кодирования : XviD 65
Аудио
Идентификатор : 1
Формат : MPEG Audio
Версия формата : Version 1
Профиль формата : Layer 3
Режим : Joint stereo
Расширение режима : MS Stereo
Идентификатор кодека : 55
Идентификатор кодека/Подсказка : MP3
Продолжительность : 1 ч. 34 м.
Вид битрейта : Постоянный
Битрейт : 128 Кбит/сек
Каналы : 2 канала
Частота : 48,0 КГц
Метод сжатия : С потерями
Размер потока : 86,8 Мбайт (12%)
Выравнивание : Соединение по промежуткам
Продолжительность промежутка : 42 мс. (1,00 видеокадр)
Время предзагрузки промежутка : 504 ms

Скриншот c названием фильма

Скриншоты





Создавать темы 05-Апр-2013 07:08

[Профиль]  [ЛС] 

zokir007

Стаж: 4 года 8 месяцев

Сообщений: 7

hdtvrip не может быть 700мб по моему

Создавать темы 05-Апр-2013 07:41

[Профиль]  [ЛС] 

Max

Стаж: 7 лет

Сообщений: 70

Симпатии: 2

изза оливии качаю

Создавать темы 07-Апр-2013 13:00

[Профиль]  [ЛС] 

farrux_b

Стаж: 5 лет 8 месяцев

Сообщений: 26

Симпатии: 5

изза оливии качаю
тоже самое

Создавать темы 07-Апр-2013 13:39

[Профиль]  [ЛС] 

Фарик13

Стаж: 4 года 9 месяцев

Сообщений: 10

Спасибо! Фильм еще не смотрел, но скачал махом:)

Создавать темы 08-Апр-2013 12:19

[Профиль]  [ЛС] 

aleksman

Стаж: 6 лет 4 месяца

Сообщений: 52

Симпатии: 2

изза оливии качаю
ага
и титры судя по скриншоту не корейские , а китайские или японские.

Создавать темы 09-Апр-2013 19:35

[Профиль]  [ЛС] 

Cheeez

Стаж: 5 лет 1 месяц

Сообщений: 15

перевод нормальный?кто смотрел подскажите?

Создавать темы 09-Апр-2013 19:56

[Профиль]  [ЛС] 

vanilayz

Стаж: 5 лет 8 месяцев

Сообщений: 39

Симпатии: 1

перевод нормальный фильм прикольный можно посмотреть

Создавать темы 11-Апр-2013 00:21

[Профиль]  [ЛС] 
Показать сообщения:    
Ответить на тему

Текущее время: 22-Ноя 06:55

Часовой пояс: UTC + 5



Вы не можете начинать темы
Вы не можете отвечать на сообщения
Вы не можете редактировать свои сообщения
Вы не можете удалять свои сообщения
Вы не можете голосовать в опросах
Вы не можете прикреплять файлы к сообщениям
Вы не можете скачивать файлы