Каратэ-пацан / The Karate Kid (Харольд Цварт) [2010 г., боевик, драма, семейный, спорт, ..., BDRip]

Ответить на тему
 

GIGABYTE158 ®

Стаж: 5 лет 4 месяца

Сообщений: 71

Симпатии: 13

Каратэ-пацан / The Karate Kid--Год выпуска:2010
Страна:США, Китай
режиссер:Харольд Цварт
сценарий:Кристофер Мёрфи, Роберт Марк Кэмен
продюсер:Джеймс Ласситер, Джада Пинкетт Смит, Уилл Смит, ...
оператор:Роджер Прэтт
композитор:Джеймс Хорнер
художник:Франсуа Сеган, Секонд Чан, Хань Фенг
монтаж:Джоэль Негрон
жанр:боевик, драма, семейный, спорт, ...
бюджет:$40 000 000
сборы в США:$176 591 618
сборы в мире:+ $182 534 404 = $359 126 022
сборы в России:$5 101 977
DVD в США:$46 553 046
зрители: 22.4 млн, 2.12 млн, 2.09 млн, ...
возраст:зрителям, достигшим 12 лет
рейтинг MPAA:рекомендуется присутствие родителей
Продолжительность:02:20:00--описание:
Двенадцатилетний Дре Паркер вместе с матерью-одиночкой переезжает из Детройта в незнакомый Пекин,
не зная языка и местных традиций. Здесь он встречает китайскую девочку Мей Ин. Однако кроме её отца,
не одобряющего их дружбу из-за культурных предрассудков, на его пути встаёт банда хулиганов во главе с Ченом,
владеющим искусством кунг-фу. Единственный способ победить его — встретиться с врагом на близящемся грандиозном турнире боевых искусств.
В этом мальчику решает помочь знаток боевых искусств мистер Хан.

знаете ли вы, что

За время создания фильма у него несколько раз менялось название: сначала — «Парень-каратист» (англ. The Karate Kid),
потом — «Парень-кунфуист» (англ. The Kung Fu Kid),
но в конце концов было решено, что фильм выйдет под обоими названиями: в Азии — второй вариант,
в большинстве остальных стран — первый. Такое противоречие вызвано тем,
что на самом деле в фильме используется искусство кунг-фу, а не карате. Karate-kid (Сяо Дре) — ироничное прозвище,
которым наградили главного героя его враги; оно же стало названием фильма.
--Качество:BDRip
Видео кодек: MPEG2
Аудио кодек: AC3
Видео: 1280x532, 6 023 Kbps, 23.976 fps
Аудио: 48.000 кц 384 Kbps, 6 channels

MI

General
Unique ID : 247044182578949724937963935545388396289 (0xB9DAFA97FB25A444B7EF3A89E7C36F01)
Complete name : D:\Кино\The.Karate.Kid.[UNRATED].2010.720p.BluRay.Rus.Ukr.Eng.HDCLUB.mkv
Format : Matroska
Format version : Version 2
File size : 7.93 GiB
Duration : 2h 20mn
Overall bit rate : 8 110 Kbps
Movie name : The Karate Kid (2010) - Release for HDCLUB
Encoded date : UTC 2010-09-15 12:39:22
Writing application : mkvmerge v3.4.0 ('Rapunzel') built on May 15 2010 09:38:20
Writing library : libebml v0.8.0 + libmatroska v0.9.0
Video
ID : 1
Format : AVC
Format/Info : Advanced Video Codec
Format profile : [email protected]
Format settings, CABAC : Yes
Format settings, ReFrames : 10 frames
Codec ID : V_MPEG4/ISO/AVC
Duration : 2h 20mn
Bit rate : 6 023 Kbps
Width : 1 280 pixels
Height : 532 pixels
Display aspect ratio : 2.40:1
Frame rate : 23.976 fps
Color space : YUV
Chroma subsampling : 4:2:0
Bit depth : 8 bits
Scan type : Progressive
Bits/(Pixel*Frame) : 0.369
Stream size : 5.73 GiB (72%)
Title : Release for HDCLUB
Writing library : x264 core 104 r1713 c276662
Encoding settings : cabac=1 / ref=10 / deblock=1:-3:-3 / analyse=0x3:0x113 / me=umh / subme=9 / psy=1 / psy_rd=1.00:0.00 / mixed_ref=1 / me_range=32 / chroma_me=1 / trellis=2 / 8x8dct=1 / cqm=0 / deadzone=21,11 / fast_pskip=0 / chroma_qp_offset=-2 / threads=12 / sliced_threads=0 / nr=0 / decimate=0 / interlaced=0 / constrained_intra=0 / bframes=8 / b_pyramid=2 / b_adapt=2 / b_bias=0 / direct=3 / weightb=1 / open_gop=0 / weightp=2 / keyint=250 / keyint_min=23 / scenecut=40 / intra_refresh=0 / rc_lookahead=60 / rc=2pass / mbtree=0 / bitrate=6023 / ratetol=1.0 / qcomp=0.64 / qpmin=10 / qpmax=51 / qpstep=4 / cplxblur=20.0 / qblur=0.5 / vbv_maxrate=62500 / vbv_bufsize=50000 / ip_ratio=1.40 / pb_ratio=1.30 / aq=1:0.80 / nal_hrd=none
Language : English
Default : No
Forced : No
Matrix coefficients : BT.709-5, BT.1361, IEC 61966-2-4 709, SMPTE RP177
Audio #1
ID : 2
Format : AC-3
Format/Info : Audio Coding 3
Mode extension : CM (complete main)
Codec ID : A_AC3
Duration : 2h 20mn
Bit rate mode : Constant
Bit rate : 384 Kbps
Channel(s) : 6 channels
Channel positions : Front: L C R, Side: L R, LFE
Sampling rate : 48.0 KHz
Bit depth : 16 bits
Compression mode : Lossy
Stream size : 385 MiB (5%)
Title : AC3 5.1 @ 384 kbps - Дублированный
Language : Russian
Default : Yes
Forced : No
Audio #2
ID : 3
Format : AC-3
Format/Info : Audio Coding 3
Mode extension : CM (complete main)
Codec ID : A_AC3
Duration : 2h 20mn
Bit rate mode : Constant
Bit rate : 192 Kbps
Channel(s) : 2 channels
Channel positions : Front: L R
Sampling rate : 48.0 KHz
Bit depth : 16 bits
Compression mode : Lossy
Stream size : 192 MiB (2%)
Title : AC3 2.0 @ 192 kbps - Дублированный
Language : Ukrainian
Default : No
Forced : No
Audio #3
ID : 4
Format : DTS
Format/Info : Digital Theater Systems
Codec ID : A_DTS
Duration : 2h 20mn
Bit rate mode : Constant
Bit rate : 1 510 Kbps
Channel(s) : 6 channels
Channel positions : Front: L C R, Side: L R, LFE
Sampling rate : 48.0 KHz
Bit depth : 16 bits
Compression mode : Lossy
Stream size : 1.48 GiB (19%)
Title : DTS 5.1 @ 1536 kbps
Language : English
Default : No
Forced : No
Text #1
ID : 5
Format : UTF-8
Codec ID : S_TEXT/UTF8
Codec ID/Info : UTF-8 Plain Text
Title : На непереведенные в расширенной версии моменты
Language : Russian
Default : No
Forced : Yes
Text #2
ID : 6
Format : UTF-8
Codec ID : S_TEXT/UTF8
Codec ID/Info : UTF-8 Plain Text
Title : На непереведенные в расширенной версии моменты
Language : Ukrainian
Default : No
Forced : No
--

Скриншоты

Обои

Трейлер


Последний раз редактировалось: GIGABYTE158 (2013-04-11 00:10), всего редактировалось 2 раз(а)

Создавать темы 05-Апр-2013 07:12

[Профиль]  [ЛС] 

Djoni111095

Стаж: 4 года 11 месяцев

Сообщений: 57

Симпатии: 11

помогу с раздачей

Создавать темы 09-Апр-2013 19:27

[Профиль]  [ЛС] 
Показать сообщения:    
Ответить на тему

Текущее время: 22-Окт 05:47

Часовой пояс: UTC + 5



Вы не можете начинать темы
Вы не можете отвечать на сообщения
Вы не можете редактировать свои сообщения
Вы не можете удалять свои сообщения
Вы не можете голосовать в опросах
Вы не можете прикреплять файлы к сообщениям
Вы не можете скачивать файлы