Черри / About Cherry (Стивен Эллиот) [2012, драма, BDRip-AVC]

Ответить на тему
 

jaska-3d ®

Стаж: 5 лет 8 месяцев

Сообщений: 250

Симпатии: 25

-Черри / About Cherry

«There's no such thing as going too far.»Год выпуска: 2012
Страна: США
Жанр: драма
Продолжительность: 01:42:11
Перевод: Любительский (одноголосый закадровый)
Cубтитры: русские
Студия: Enderby Entertainment, Gordon Bijelonic / Datari Turner Films-Режиссер: Стивен Эллиот
Сценарий: Стивен Эллиот, Лорелей Ли
Продюсер: Гордон Бижелонич, Элизабет Дестро, Рик Дагдэйл, ...
Оператор: Даррен Жене
Композитор : Джефф Руссо
Художник: Даниэлла Тернер
Монтаж: Мишель Боттичелли-В ролях: Эшли Хиншоу (Ashley Hinshaw), Джеймс Франко (James Franco), Хэзер Грэм (Heather Graham), Дев Патель (Dev Patel), Лили Тейлор (Lili Taylor), Дайан Фарр (Diane Farr), Джонни Уэстон (Jonny Weston), Майя Рэйнс (Maya Raines), Винсент Пало (Vincent Palo), Элана К. Пайл (Elana Krausz), Исаак Фицберальд (Isaac Fitzberald), Лорелей Ли (Lorelei Lee), К. Ли (K. Lee), Кэсси Нельсон (Cassie Nelson), Майкл Торрес (Michael Torre)-Описание: История 18-летний девушки начинающей работать в порнографическом бизнесе после того, как она переезжает в Сан-Франциско.-Сборы в США: $3 003
Премьера (мир): 24 апреля 2012, ...
Премьера (РФ): 18 апреля 2013, «Project Manometr»
Рейтинг MPAA: Лицам до 17 лет обязательно присутствие взрослого- -Релиз группы:
Качество: BDRip-AVC
Формат: MKV
Видео кодек: AVC
Аудио кодек: AC3
Видео: 1024x576 (16:9), 23.976 fps, AVC, 1 800 Kbps
Аудио: Аудио #1: AC3, 448 Kbps, 48.0 KHz, 6 ch

МедиаИнфо

General
Complete name                    : About Cherry 2012.x264.BDRip.(AVC).by.Тorrent-Хzona.mkv
Format                           : Matroska
File size                        : 1.61 GiB
Duration                         : 1h 42mn
Overall bit rate                 : 2 249 Kbps
Encoded date                     : UTC 2013-02-21 07:44:30
Writing application              : mkvmerge v5.8.0 ('No Sleep / Pillow') built on Sep  2 2012 15:37:04
Writing library                  : libebml v1.2.3 + libmatroska v1.3.0
Video
ID                               : 1
Format                           : AVC
Format/Info                      : Advanced Video Codec
Format profile                   : [email protected]
Format settings, CABAC           : Yes
Format settings, ReFrames        : 5 frames
Format settings, GOP             : M=6, N=25
Muxing mode                      : Container [email protected]
Codec ID                         : V_MPEG4/ISO/AVC
Duration                         : 1h 42mn
Bit rate                         : 1 800 Kbps
Width                            : 1 024 pixels
Height                           : 576 pixels
Display aspect ratio             : 16:9
Frame rate                       : 23.976 fps
Color space                      : YUV
Chroma subsampling               : 4:2:0
Bit depth                        : 8 bits
Scan type                        : Progressive
Bits/(Pixel*Frame)               : 0.127
Stream size                      : 1.25 GiB (78%)
Writing library                  : x264 core 125 r2208 d9d2288
Encoding settings                : cabac=1 / ref=5 / deblock=1:-2:-2 / analyse=0x3:0x111 / me=umh / subme=9 / psy=1 / psy_rd=0.00:0.10 / mixed_ref=1 / me_range=32 / chroma_me=1 / trellis=2 / 8x8dct=1 / cqm=0 / deadzone=21,11 / fast_pskip=0 / chroma_qp_offset=-1 / threads=3 / lookahead_threads=1 / sliced_threads=0 / nr=0 / decimate=1 / interlaced=0 / bluray_compat=0 / constrained_intra=0 / bframes=5 / b_pyramid=2 / b_adapt=0 / b_bias=0 / direct=1 / weightb=1 / open_gop=0 / weightp=2 / keyint=250 / keyint_min=23 / scenecut=40 / intra_refresh=0 / rc_lookahead=50 / rc=2pass / mbtree=1 / bitrate=1800 / ratetol=1.0 / qcomp=0.60 / qpmin=0 / qpmax=69 / qpstep=4 / cplxblur=20.0 / qblur=0.5 / ip_ratio=1.40 / aq=1:1.00
Audio
ID                               : 2
Format                           : AC-3
Format/Info                      : Audio Coding 3
Mode extension                   : CM (complete main)
Codec ID                         : A_AC3
Duration                         : 1h 42mn
Bit rate mode                    : Constant
Bit rate                         : 448 Kbps
Channel(s)                       : 6 channels
Channel positions                : Front: L C R, Side: L R, LFE
Sampling rate                    : 48.0 KHz
Bit depth                        : 16 bits
Stream size                      : 327 MiB (20%)

Скриншоты






Постер



Последний раз редактировалось: jaska-3d (2013-04-05 18:58), всего редактировалось 2 раз(а)

Создавать темы 05-Апр-2013 18:09

[Профиль]  [ЛС] 

uTorrent

Стаж: 4 года 10 месяцев

Сообщений: 149

Симпатии: 1

Ты себе скачай торрент файл и сохрани в том же месте на жестком диске. потом начнется раздача которую мы ждем

Создавать темы 05-Апр-2013 18:49

[Профиль]  [ЛС] 

jaska-3d ®

Стаж: 5 лет 8 месяцев

Сообщений: 250

Симпатии: 25

Ты себе скачай торрент файл и сохрани в том же месте на жестком диске. потом начнется раздача которую мы ждем
(Fucking) Big Love


Последний раз редактировалось: jaska-3d (2013-04-10 15:19), всего редактировалось 5 раз(а)

Создавать темы 05-Апр-2013 18:54

[Профиль]  [ЛС] 

shahz

Стаж: 5 лет 6 месяцев

Сообщений: 192

Симпатии: 9

Наверное закроют. Кто успел, тот съел ))

Создавать темы 05-Апр-2013 18:56

[Профиль]  [ЛС] 

jaska-3d ®

Стаж: 5 лет 8 месяцев

Сообщений: 250

Симпатии: 25

Наверное закроют. Кто успел, тот съел ))
Не народ, это вполне нормальный фильм без всякой пошлости, не судите по описанию и по постеру, на другом трекере этот же релиз стоит на раздаче, автор релиза Я.

Создавать темы 05-Апр-2013 19:02

[Профиль]  [ЛС] 

Топик был перенесен из форума Фильмы за 2012 в форум HD-AVC

mp1988

Создавать темы 05-Апр-2013 20:20

 

jaska-3d ®

Стаж: 5 лет 8 месяцев

Сообщений: 250

Симпатии: 25

Roy спасибо за поддержку сидирования

Создавать темы 05-Апр-2013 21:20

[Профиль]  [ЛС] 

InD1gO

Стаж: 6 лет 7 месяцев

Сообщений: 81

Симпатии: 3

не понимаю скорости почти нет - это из-за работ на трекере?

Создавать темы 08-Апр-2013 10:38

[Профиль]  [ЛС] 
Показать сообщения:    
Ответить на тему

Текущее время: 23-Авг 20:46

Часовой пояс: UTC + 5



Вы не можете начинать темы
Вы не можете отвечать на сообщения
Вы не можете редактировать свои сообщения
Вы не можете удалять свои сообщения
Вы не можете голосовать в опросах
Вы не можете прикреплять файлы к сообщениям
Вы не можете скачивать файлы