[Sonic Academy] Студийная акустика и поглотители звука [2011, RUS]

Ответить на тему
 

Григорий К ®

Стаж: 5 лет

Сообщений: 569

Симпатии: 284

Студийная акустика и поглотители звука
Год выпуска: 2011
Производитель: Sonic Academy
Автор: Алан Макгриви, Фил Джонстон
Продолжительность: 00:31:00
Тип раздаваемого материала: Видеоурок
Язык: Русский
Описание: Одним из важнейших аспектов фирменного звучания музыки является акустика помещения.
В этом курсе Алан Макгриви научит вас делать собственные поглотители звука,
а Фил джонстон покажет вам, как пользоваться специальным софтом для анализа комнаты.
С этими навыками вы сможете улучшить акустические характеристики вашей комнаты для более объективного звучания.

Содержание

01 Материалы
02 Собираем рамку
03 Крепим материал
04 Обзор программы Room EQ Wizzard
05 Установка софта и измерения
06 Установка поглотителей и окончательный результат
Формат видео: MP4
Видео: AVC, 1280x704, 16:9, 25,000 кадров/сек, 1299 Кбит/сек
Аудио: AAC, 44,1 КГц, 192 Кбит/сек, 2 канала

Скриншоты



Доп. информация:

MediaInfo

Общее
Полное имя : C:\Users\Woozya\Downloads\01_materialy_-_[rustuts.com].mp4
Формат : MPEG-4
Профиль формата : Base Media
Идентификатор кодека : isom
Размер файла : 13,2 Мбайт
Продолжительность : 1 м. 14 с.
Режим общего битрейта : Переменный
Общий поток : 1497 Кбит/сек
Программа кодирования : Lavf52.37.0
Видео
Идентификатор : 1
Формат : AVC
Формат/Информация : Advanced Video Codec
Профиль формата : [email protected]
Параметр CABAC формата : Да
Параметр ReFrames формата : 4 кадра
Идентификатор кодека : avc1
Идентификатор кодека/Информация : Advanced Video Coding
Продолжительность : 1 м. 14 с.
Битрейт : 1299 Кбит/сек
Ширина : 1280 пикселей
Высота : 704 пикселя
Соотношение сторон : 16:9
Режим частоты кадров : Постоянный
Частота кадров : 25,000 кадров/сек
Цветовое пространство : YUV
Субдискретизация насыщенности : 4:2:0
Битовая глубина : 8 бит
Тип развёртки : Прогрессивная
Бит/(Пиксели*Кадры) : 0.058
Размер потока : 11,5 Мбайт (87%)
Аудио
Идентификатор : 2
Формат : AAC
Формат/Информация : Advanced Audio Codec
Профиль формата : LC
Идентификатор кодека : 40
Продолжительность : 1 м. 14 с.
Вид битрейта : Переменный
Битрейт : 192 Кбит/сек
Каналы : 2 канала
Расположение каналов : Front: L R
Частота : 44,1 КГц
Метод сжатия : С потерями
Размер потока : 1,72 Мбайт (13%)


Последний раз редактировалось: Григорий К (2013-04-06 08:17), всего редактировалось 1 раз

Создавать темы 05-Апр-2013 22:44

[Профиль]  [ЛС] 

FARA MIRA

Стаж: 5 лет 4 месяца

Сообщений: 37

Симпатии: 1

Спасибо!!

Создавать темы 05-Апр-2013 23:01

[Профиль]  [ЛС] 

FARA MIRA

Стаж: 5 лет 4 месяца

Сообщений: 37

Симпатии: 1

Sorry

Создавать темы 06-Апр-2013 08:55

[Профиль]  [ЛС] 

scorpi-on

Стаж: 4 года 3 месяца

Сообщений: 14

dayte skoros

Создавать темы 12-Янв-2014 00:18

[Профиль]  [ЛС] 
Показать сообщения:    
Ответить на тему

Текущее время: 21-Сен 15:38

Часовой пояс: UTC + 5



Вы не можете начинать темы
Вы не можете отвечать на сообщения
Вы не можете редактировать свои сообщения
Вы не можете удалять свои сообщения
Вы не можете голосовать в опросах
Вы не можете прикреплять файлы к сообщениям
Вы не можете скачивать файлы