Тачка №19 / Vehicle 19 (Мукунда Майкл Дьюил / Mukunda Michael Dewil) [2013, США, Боевик, Триллер, WEB-DLRip] DVO

Страницы :  1, 2, 3  След.

Ответить на тему
 

Suxrob89 ®

Стаж: 7 лет 3 месяца

Сообщений: 933

Симпатии: 564

--Тачка №19 / Vehicle 19-- Страна: США
Жанр: Боевик, Триллер
Год выпуска: 2013
Продолжительность: 01:25:10
Перевод: Профессиональный (двухголосый закадровый)
Cубтитры: нет
Оригинальная аудиодорожка: нет-Режиссер: Мукунда Майкл Дьюил / Mukunda Michael Dewil-В ролях: Пол Уокер, Наима МакЛин, Ги Де Виллерс, Лэйла Хайдариан, Тшепо Масеко, Андриан Мазив, Велиль Нзуза, Мангалисо Нгема, Эрнест Кубайи, Элиз Ван Никерк-Описание: Рассказ пойдет про американца, который перевозит свидетеля, чтобы тот дал показания против коррумпированных полицейских. Последние всеми силами будут пытаться помешать свидетелю доехать до здания суда (живым).- -Качество видео: WEB-DLRip
Формат видео: AVI
Видео: Xvid 720x304 23.976fps 1844kbps
Аудио: Dolby AC3 48000Hz 6ch 448kbps

MediaInfo

G:\Тачка 19.P.WEBDLRip.avi
General
Complete name : G:\Òà÷êà 19.P.WEBDLRip.avi
Format : AVI
Format/Info : Audio Video Interleave
File size : 1.37 GiB
Duration : 1h 25mn
Overall bit rate : 2 302 Kbps
Writing application : VirtualDubMod 1.5.10.2 (build 2542/release)
Writing library : VirtualDubMod build 2542/release
Video #0
ID : 0
Format : MPEG-4 Visual
Format profile : Advanced [email protected]
Format settings, BVOP : Yes
Format settings, QPel : No
Format settings, GMC : No warppoints
Format settings, Matrix : Default (MPEG)
Muxing mode : Packed bitstream
Codec ID : XVID
Codec ID/Hint : XviD
Duration : 1h 25mn
Bit rate : 1 845 Kbps
Width : 720 pixels
Height : 304 pixels
Display aspect ratio : 2.35:1
Frame rate : 23.976 fps
Color space : YUV
Chroma subsampling : 4:2:0
Bit depth : 8 bits
Scan type : Progressive
Bits/(Pixel*Frame) : 0.352
Stream size : 1.10 GiB (80%)
Writing library : XviD 73
Audio #1
ID : 1
Format : AC-3
Format/Info : Audio Coding 3
Mode extension : CM (complete main)
Codec ID : 2000
Duration : 1h 25mn
Bit rate mode : Constant
Bit rate : 448 Kbps
Channel(s) : 6 channels
Channel positions : Front: L C R, Side: L R, LFE
Sampling rate : 48.0 KHz
Bit depth : 16 bits
Stream size : 273 MiB (19%)
Alignment : Split accross interleaves
Interleave, duration : 42 ms (1.00 video frame)
Interleave, preload duration : 500 ms

Скриншот c названием фильма

Скриншоты



Создавать темы 06-Апр-2013 04:53

[Профиль]  [ЛС] 

Mixer City

Стаж: 6 лет 10 месяцев

Сообщений: 754

Симпатии: 63

Описание: Рассказ пойдет про американца, который перевозит свидетеля, чтобы тот дал показания против коррумпированных полицейских. Последние всеми силами будут пытаться помешать свидетелю доехать до здания суда (живым).
16 кварталов: Брюс Уиллис, Мос Деф

Создавать темы 06-Апр-2013 09:06

[Профиль]  [ЛС] 

t1man

Стаж: 5 лет 1 месяц

Сообщений: 75

Suxrob89 спасибо Братка!

Создавать темы 06-Апр-2013 13:03

[Профиль]  [ЛС] 

hitan89

Стаж: 5 лет 8 месяцев

Сообщений: 6

2 мая в кино? а тут уже 6 апреля в качестве? Вот чудеса)

Создавать темы 06-Апр-2013 16:34

[Профиль]  [ЛС] 

shurikq

Стаж: 5 лет 2 месяца

Сообщений: 114

Симпатии: 1

2 мая в кино? а тут уже 6 апреля в качестве? Вот чудеса)
да ! это странновата как та !?

Создавать темы 06-Апр-2013 20:18

[Профиль]  [ЛС] 

Xuri007

Стаж: 5 лет 5 месяцев

Сообщений: 106

Пол Уолкер последнее время снимается только в фильмах где есть тачки и гонки )))

Создавать темы 07-Апр-2013 00:30

[Профиль]  [ЛС] 

Creed

Стаж: 4 года 10 месяцев

Сообщений: 12

Звук в качестве?

Создавать темы 07-Апр-2013 08:09

[Профиль]  [ЛС] 

Maxvenom

Стаж: 4 года 8 месяцев

Сообщений: 39

Что за беспредел? 2 мая в кино? Это фэйк. Или украденная версия?

Создавать темы 07-Апр-2013 10:16

[Профиль]  [ЛС] 

jazz4fun69

Стаж: 4 года 8 месяцев

Сообщений: 69

уснул во время просмотра

Создавать темы 07-Апр-2013 15:33

[Профиль]  [ЛС] 

boy86

Стаж: 4 года 9 месяцев

Сообщений: 26

Симпатии: 2

2 мая в кино? а тут уже 6 апреля в качестве? Вот чудеса)
да ! это странновата как та !?
Доснимывали в Афганистане наверное. Там дешевле просто. ))

Создавать темы 07-Апр-2013 16:06

[Профиль]  [ЛС] 

jazz4fun69

Стаж: 4 года 8 месяцев

Сообщений: 69

на постере сперва прочел как "полупокер", кста

Создавать темы 07-Апр-2013 16:18

[Профиль]  [ЛС] 

farhaa

Стаж: 6 лет 9 месяцев

Сообщений: 167

Симпатии: 2

весь фильм на машине сидит

Создавать темы 08-Апр-2013 00:29

[Профиль]  [ЛС] 

Sprite

Стаж: 7 лет 8 месяцев

Сообщений: 10

Симпатии: 1

Menga vashshe yoqmadi zerikarli

Создавать темы 09-Апр-2013 15:15

[Профиль]  [ЛС] 

Juravle_93

Стаж: 4 года 9 месяцев

Сообщений: 87

Симпатии: 7

Suxrob89, Привет! А когда лицензия будет?)))))))

Создавать темы 09-Апр-2013 20:30

[Профиль]  [ЛС] 

jazz4fun69

Стаж: 4 года 8 месяцев

Сообщений: 69

Juravle_93, чем вас это не устраивает? качество нормальное

Создавать темы 09-Апр-2013 21:28

[Профиль]  [ЛС] 
Показать сообщения:    
Ответить на тему

Текущее время: 20-Ноя 07:24

Часовой пояс: UTC + 5



Вы не можете начинать темы
Вы не можете отвечать на сообщения
Вы не можете редактировать свои сообщения
Вы не можете удалять свои сообщения
Вы не можете голосовать в опросах
Вы не можете прикреплять файлы к сообщениям
Вы не можете скачивать файлы