Технология спаивания [2012 г., познавательный, DVDRip]

Ответить на тему
 

jazz4fun69 ®

Стаж: 4 года 6 месяцев

Сообщений: 69

Технология спаивания
Год выпуска: 2012
Страна: Россия
Режиссер: КоБ (Концепция Общественной Безопасности)
Жанр: Документальный
Продолжительность: 00:36:20
Перевод: Не требуется
Русские субтитры: нет
Описание: Посмотрев этот фильм вы узнаете ответы на такие вопросы как:
- Пить в меру безвредно?
- Почему пиво считается алкоголем?
- Почему алкоголь греет в мороз?
- Что такое опьянение?
- В чём главное отличие алкоголя от наркотиков?
- Красное вино полезно?
- Действительно ли алкоголь разрушает мозг?
- Как алкоголь снимает стресс?
- Почему можно пить только с 18 лет?
Качество: DVDRip
Формат: MPEG-4
Видео кодек: AVC
Аудио кодек: AAC
Видео: 852x480, 29.970 fps, 2 018 Kbps
Аудио: 2 channels, 32.0 KHz, 128 Kbps

Media Info

Format : MPEG-4
Format profile : Base Media / Version 2
Codec ID : mp42
File size : 558 MiB
Duration : 36mn 20s
Overall bit rate : 2 145 Kbps
Movie name : Технология спаивания (2012(
Encoded date : UTC 2012-01-11 18:45:48
Tagged date : UTC 2012-01-11 18:46:17
Video #1
ID : 1
Format : AVC
Format/Info : Advanced Video Codec
Format profile : [email protected]
Format settings, CABAC : No
Format settings, ReFrames : 2 frames
Format settings, GOP : M=1, N=30
Codec ID : avc1
Codec ID/Info : Advanced Video Coding
Duration : 36mn 20s
Bit rate : 2 018 Kbps
Width : 852 pixels
Height : 480 pixels
Display aspect ratio : 16:9
Frame rate mode : Constant
Frame rate : 29.970 fps
Color space : YUV
Chroma subsampling : 4:2:0
Bit depth : 8 bits
Scan type : Progressive
Bits/(Pixel*Frame) : 0.165
Stream size : 525 MiB (94%)
Language : English
Encoded date : UTC 2012-01-11 18:45:46
Tagged date : UTC 2012-01-11 18:46:17
Color primaries : BT.709
Transfer characteristics : BT.709
Matrix coefficients : BT.709
Audio #2
ID : 2
Format : AAC
Format/Info : Advanced Audio Codec
Format profile : LC
Codec ID : 40
Duration : 36mn 20s
Source duration : 36mn 20s
Bit rate mode : Constant
Bit rate : 128 Kbps
Channel(s) : 2 channels
Channel positions : Front: L R
Sampling rate : 32.0 KHz
Compression mode : Lossy
Stream size : 32.1 MiB (6%)
Source stream size : 32.1 MiB (6%)
Language : English
Encoded date : UTC 2012-01-11 18:45:46
Tagged date : UTC 2012-01-11 18:46:17

Скриншоты





Последний раз редактировалось: jazz4fun69 (2013-04-10 15:23), всего редактировалось 3 раз(а)

Создавать темы 06-Апр-2013 11:21

[Профиль]  [ЛС] 

jazz4fun69 ®

Стаж: 4 года 6 месяцев

Сообщений: 69

((: в свое оправдание скажу, что мысль убрать эту графу была

Создавать темы 06-Апр-2013 18:41

[Профиль]  [ЛС] 

the

Стаж: 4 года 11 месяцев

Сообщений: 34

уважаемые, дайте докачать

Создавать темы 23-Апр-2013 22:26

[Профиль]  [ЛС] 
Показать сообщения:    
Ответить на тему

Текущее время: 20-Сен 16:15

Часовой пояс: UTC + 5



Вы не можете начинать темы
Вы не можете отвечать на сообщения
Вы не можете редактировать свои сообщения
Вы не можете удалять свои сообщения
Вы не можете голосовать в опросах
Вы не можете прикреплять файлы к сообщениям
Вы не можете скачивать файлы