Невеста любой ценой (Дмитрий Грачев) [2009 г., комедия, DVDRip]

Ответить на тему
 

antonio ®

Стаж: 5 лет 9 месяцев

Сообщений: 88

Симпатии: 1

Невеста любой ценой
Год выпуска: 2009
Жанр: Комедия
Продолжительность: 1:36:07
Режиссер: Дмитрий Грачев
В ролях: Павел Воля, Любовь Толкалина, Наталья Рычкова, Мария Шалаева, Александр Самойленко, Виталий Хаев, Сергей Ларин, Ольга Шелест, Максим Костромыкин, Оксана Кутузова и др.
Описание: Главный герой — удачливый бизнесмен и гениальный сердцеед, хорошо изучивший женскую психологию. Чтобы заслужить повышение по службе, он вступает в контакт с опасным бизнесменом с криминальным прошлым. Но во время переговоров, не сдержав темперамента, легко соблазняет его подругу, а выходя от нее утром, попадается на глаза шоферу бизнесмена. Теперь ему грозит серьезная опасность, если, конечно, он не сумеет обеспечить себе алиби в виде невесты. Любой ценой.
Качество: DVDRip
Формат: AVI
Видео кодек: XviD
Аудио кодек: AC3
Видео: 750x398, 25,000 кадров/сек., 1556 Кбит/сек
Аудио: 6 каналов, 48,0 КГц., 448 Кбит/сек

Скриншоты



Медиа инфо

Общее
Полное имя : D:\Movies\nevesta_ljuboj_cenoj.avi
Формат : AVI
Формат/Информация : Audio Video Interleave
Размер файла : 1,37 Гбайт
Продолжительность : 1 ч. 37 м.
Общий поток : 2013 Кбит/сек
Название фильма : Nevesta ljuboj cenoj (2009)
Режиссёр : ELEKTRI4KA [uniongang.ru]
Программа кодирования : VirtualDubMod 1.5.4.1 (build 2178/release)
Библиотека кодирования : VirtualDubMod build 2178/release
Правообладатель : http://uniongang.ru/
Видео
Идентификатор : 0
Формат : MPEG-4 Visual
Профиль формата : Advanced [email protected]
Параметр BVOP формата : 2
Параметр QPel формата : Нет
Параметр GMC формата : Без точки перехода
Параметр матрицы формата : Выборочная
Идентификатор кодека : XVID
Идентификатор кодека/Подсказка : XviD
Продолжительность : 1 ч. 37 м.
Битрейт : 1556 Кбит/сек
Ширина : 750 пикселя
Высота : 398 пикселя
Соотношение сторон : 1,85:1
Частота кадров : 25,000 кадров/сек
Цветовое пространство : YUV
Субдискретизация насыщенности : 4:2:0
Битовая глубина : 8 бит
Тип развёртки : Прогрессивная
Метод сжатия : С потерями
Бит/(Пиксели*Кадры) : 0.230
Размер потока : 1,06 Гбайт (77%)
Заголовок : Nevesta ljuboj cenoj (2009)
Библиотека кодирования : XviD 1.2.0.dev47 (UTC 2006-11-01)
Аудио
Идентификатор : 1
Формат : AC-3
Формат/Информация : Audio Coding 3
Расширение режима : CM (complete main)
Параметр Endianness формата : Big
Идентификатор кодека : 2000
Продолжительность : 1 ч. 37 м.
Вид битрейта : Постоянный
Битрейт : 448 Кбит/сек
Каналы : 6 каналов
Расположение каналов : Front: L C R, Side: L R, LFE
Частота : 48,0 КГц
Битовая глубина : 16 бит
Метод сжатия : С потерями
Задержка видео : 200 мс.
Размер потока : 311 Мбайт (22%)
Выравнивание : Разделение по промежуткам
Продолжительность промежутка : 40 мс. (1,00 видеокадр)
Время предзагрузки промежутка : 500 мс.


Последний раз редактировалось: antonio (2013-04-10 14:46), всего редактировалось 16 раз(а)

Создавать темы 07-Апр-2013 22:46

[Профиль]  [ЛС] 

antonio ®

Стаж: 5 лет 9 месяцев

Сообщений: 88

Симпатии: 1

как только тас икс норм заработает, постер и тд исправлю. Спасибо за понимание

Создавать темы 07-Апр-2013 22:55

[Профиль]  [ЛС] 

Mixer City

Стаж: 6 лет 10 месяцев

Сообщений: 754

Симпатии: 63

antonio, есть другие хосты: img.uz - к примеру.

Создавать темы 08-Апр-2013 13:12

[Профиль]  [ЛС] 

Топик был перенесен из форума Фильмы за 2010 в форум Российское кино

Mixer City

Создавать темы 08-Апр-2013 13:13

 

antonio ®

Стаж: 5 лет 9 месяцев

Сообщений: 88

Симпатии: 1

Модераторы, прошу строго не судить. Я давно не заливал ничего, прошу помочь с оформлением и с видео аудио кодеками. Если я что то не дописал, в медиа инфо есть. Спасибо

Создавать темы 09-Апр-2013 13:32

[Профиль]  [ЛС] 

western

Стаж: 4 года 5 месяцев

Сообщений: 4

пожалуйста дайте скорости

Создавать темы 05-Июн-2013 22:43

[Профиль]  [ЛС] 

sanyok89

Стаж: 4 года

Сообщений: 3

вернитесь кто нибудь на раздачу ))

Создавать темы 15-Мар-2014 12:57

[Профиль]  [ЛС] 
Показать сообщения:    
Ответить на тему

Текущее время: 18-Ноя 05:48

Часовой пояс: UTC + 5



Вы не можете начинать темы
Вы не можете отвечать на сообщения
Вы не можете редактировать свои сообщения
Вы не можете удалять свои сообщения
Вы не можете голосовать в опросах
Вы не можете прикреплять файлы к сообщениям
Вы не можете скачивать файлы