Жуткие 13 / 13 Eerie (Лоуелл Дин / Lowell Dean) [2013, Канада, Ужасы, DVDRip] DVO (DeadSno & den904)

Ответить на тему
 

Suxrob89 ®

Стаж: 7 лет

Сообщений: 933

Симпатии: 564

--Жуткие 13
13 Eerie
-- Страна: Канада
Жанр: Ужасы
Год выпуска: 2013
Продолжительность: 01:26:33--Перевод: Любительский двухголосый закадровый (DeadSno & den904)
Перевод на русский язык: [Janetta]
Cубтитры: нет
Оригинальная аудиодорожка: нет--Режиссер: Лоуелл Дин / Lowell Dean--В ролях: Кэтрин Изабель, Брендан Фер, Брендан Флетчер, Ник Моран, Джесси Мосс, Кристи Паттерсон, Майкл Эйснер, Линдон Брэй, Майкл Шэнкс, Шеннон Джардин--Описание: Группа из шести выпускников университета, будущих судмедэкспертов, высаживаются в ходе университетской практики на некий отдаленный островок. Однако, прибывшие не в курсе, что данный островок использовался правительством, как некое экспериментальное поле для нелегальных биологических тестов над пожизненными заключенными. Как обычно «что-то пошло не так», и оставленные на смерть заключенные, ее, смерти, так и не дождались, или дождались, но частично…- --Качество видео: DVDRip
Формат видео: AVI
Видео: Xvid 640x352 23.976fps 920kbps
Аудио: MP3 48000Hz stereo 128kbps

MediaInfo

General
Complete name                  : F:\TORRENTS\13.Eerie.2013.L2.DVDRip.700Mb.avi
Format                         : AVI
Format/Info                    : Audio Video Interleave
File size                      : 655 MiB
Duration                       : 1h 26mn
Overall bit rate               : 1 058 Kbps
Writing application            : VirtualDubMod 1.5.10.2 (build 2540/release)
Writing library                : VirtualDubMod build 2540/release
Video
ID                             : 0
Format                         : MPEG-4 Visual
Format profile                 : Advanced [email protected]
Format settings, BVOP          : 2
Format settings, QPel          : No
Format settings, GMC           : No warppoints
Format settings, Matrix        : Default (H.263)
Muxing mode                    : Packed bitstream
Codec ID                       : XVID
Codec ID/Hint                  : XviD
Duration                       : 1h 26mn
Bit rate                       : 921 Kbps
Width                          : 640 pixels
Height                         : 352 pixels
Display aspect ratio           : 16:9
Frame rate                     : 23.976 fps
Color space                    : YUV
Chroma subsampling             : 4:2:0
Bit depth                      : 8 bits
Scan type                      : Progressive
Compression mode               : Lossy
Bits/(Pixel*Frame)             : 0.170
Stream size                    : 570 MiB (87%)
Writing library                : XviD 64
Audio
ID                             : 1
Format                         : MPEG Audio
Format version                 : Version 1
Format profile                 : Layer 3
Mode                           : Joint stereo
Mode extension                 : MS Stereo
Codec ID                       : 55
Codec ID/Hint                  : MP3
Duration                       : 1h 26mn
Bit rate mode                  : Constant
Bit rate                       : 128 Kbps
Channel(s)                     : 2 channels
Sampling rate                  : 48.0 KHz
Compression mode               : Lossy
Stream size                    : 79.2 MiB (12%)
Alignment                      : Aligned on interleaves
Interleave, duration           : 42 ms (1.00 video frame)
Interleave, preload duration   : 504 ms

Скриншот c названием фильма

Скриншоты






--

Создавать темы 08-Апр-2013 07:02

[Профиль]  [ЛС] 

4102492

Стаж: 4 года 6 месяцев

Сообщений: 14

ТВ3

Создавать темы 09-Апр-2013 13:29

[Профиль]  [ЛС] 

arslan-mukatov

Стаж: 5 лет 6 месяцев

Сообщений: 74

как фильм стоит качать???

Создавать темы 09-Апр-2013 13:46

[Профиль]  [ЛС] 

hard92

Стаж: 4 года 9 месяцев

Сообщений: 60

рядовой ТВ3(

Создавать темы 09-Апр-2013 17:47

[Профиль]  [ЛС] 

zaikov150

Стаж: 5 лет 8 месяцев

Сообщений: 2

зашибись фильмец

Создавать темы 09-Апр-2013 18:05

[Профиль]  [ЛС] 

andiman

Стаж: 4 года 9 месяцев

Сообщений: 134

Симпатии: 1

Парни, тв3 уже получшал немного... Теперь это "НСТ"- этот фильм конкретный клиент этого канала!

Создавать темы 09-Апр-2013 19:17

[Профиль]  [ЛС] 

Snoop

Стаж: 6 лет 11 месяцев

Сообщений: 91

Симпатии: 7

пипец идиотский сюжет!

Создавать темы 25-Июн-2013 08:08

[Профиль]  [ЛС] 

Butty

Стаж: 4 года 11 месяцев

Сообщений: 96

Симпатии: 6

Как обычно «что-то пошло не так», И вот весь сюжет фильма раскрыт =)

Создавать темы 25-Июн-2013 15:39

[Профиль]  [ЛС] 

regroom

Стаж: 4 года 3 месяца

Сообщений: 7

Эмм... А где жуткие?

Создавать темы 25-Июн-2013 20:26

[Профиль]  [ЛС] 
Показать сообщения:    
Ответить на тему

Текущее время: 22-Авг 04:41

Часовой пояс: UTC + 5



Вы не можете начинать темы
Вы не можете отвечать на сообщения
Вы не можете редактировать свои сообщения
Вы не можете удалять свои сообщения
Вы не можете голосовать в опросах
Вы не можете прикреплять файлы к сообщениям
Вы не можете скачивать файлы