Козы / Goats (Кристофер Нил / Christopher Neil) [2012, США, комедия, HDRip-AVC] MVO + Subs (eng, spa) + Original (eng)

Ответить на тему
 

Suxrob89 ®

Стаж: 7 лет 2 месяца

Сообщений: 933

Симпатии: 564

-Козы / Goats-«You can't choose your family...or can you?»- Страна: США
Жанр: комедия
Год выпуска: 2012
Продолжительность: 01:34:06
Перевод: Любительский (многоголосый закадровый) [Alternative Production]
Cубтитры: английские (SDH), испанские
Оригинальная аудиодорожка: английский-Режиссер: Кристофер Нил / Christopher Neil-В ролях: Дэвид Духовны, Вера Фармига, Грэхэм Филлипс, Кери Рассел, Джастин Кирк, Тай Бурелл, Дакота Джонсон, Джастин Вилон, Ивэн Боймел, Тимоти Гиббс, Аделаида Кейн, Ольга Сегура-Описание: История о четырнадцатилетнем мальчике Эллисе и Козопасе — сорокалетнем слабоумном, который живет рядом с Эллисом и его матерью и выполняет всю грязную работу в обмен на еду и крышу над головой для него самого и его коз. Свободное от работы время Козопас посвящает выращиванию и употреблению марихуаны. Эллис — его единственный друг. С Козопасом мальчик готов делить даже холодные ночные переходы через пустыню в поисках новых пастбищ. Идиллия заканчивается, когда Эллису настает время отправляться на учебу на другой конец страны, в школу, за которую платит его отсутствующий отец.- -Качество видео: HDRip-AVC
Формат видео: MKV
Видео: x264, 1152x480 (2.40:1), 23.976 fps, 1324 kbps
Аудио 1: (русский) AC-3, 48.0 kHz, 448 kbps, 5.1 ch
Аудио 2: (английский) AC-3, 48.0 kHz, 448 kbps, 5.1 ch
Формат субтитров: softsub (SRT)-

MediaInfo + x264 log

General
Unique ID                                : 296494083548403700850376222898386855143 (0xDF0EAEF2402D2376BA243D7DF13F64E7)
Complete name                            : /home/kem/Video/Goats.2012.HDRip.x264.MVO.Subs.Eng.mkv
Format                                   : Matroska
Format version                           : Version 2
File size                                : 1.46 GiB
Duration                                 : 1h 34mn
Overall bit rate                         : 2 221 Kbps
Encoded date                             : UTC 2012-09-24 22:04:53
Writing application                      : mkvmerge v5.8.0 ('No Sleep / Pillow') built on Sep  3 2012 22:55:09
Writing library                          : libebml v1.2.2 + libmatroska v1.3.0
Video
ID                                       : 1
Format                                   : AVC
Format/Info                              : Advanced Video Codec
Format profile                           : [email protected]
Format settings, CABAC                   : Yes
Format settings, ReFrames                : 14 frames
Codec ID                                 : V_MPEG4/ISO/AVC
Duration                                 : 1h 34mn
Bit rate                                 : 1 324 Kbps
Width                                    : 1 152 pixels
Height                                   : 480 pixels
Display aspect ratio                     : 2.40:1
Frame rate                               : 23.976 fps
Color space                              : YUV
Chroma subsampling                       : 4:2:0
Bit depth                                : 8 bits
Scan type                                : Progressive
Bits/(Pixel*Frame)                       : 0.100
Stream size                              : 862 MiB (58%)
Writing library                          : x264 core 125
Encoding settings                        : cabac=1 / ref=14 / deblock=1:-3:-3 / analyse=0x3:0x133 / me=umh / subme=11 / psy=1 / psy_rd=1.00:0.00 / mixed_ref=1 / me_range=32 / chroma_me=1 / trellis=2 / 8x8dct=1 / cqm=0 / deadzone=21,11 / fast_pskip=0 / chroma_qp_offset=-4 / threads=6 / lookahead_threads=1 / sliced_threads=0 / nr=0 / decimate=1 / interlaced=0 / bluray_compat=0 / constrained_intra=0 / bframes=7 / b_pyramid=2 / b_adapt=2 / b_bias=0 / direct=3 / weightb=1 / open_gop=0 / weightp=2 / keyint=250 / keyint_min=23 / scenecut=40 / intra_refresh=0 / rc_lookahead=60 / rc=2pass / mbtree=1 / bitrate=1324 / ratetol=1.0 / qcomp=0.70 / qpmin=0 / qpmax=69 / qpstep=4 / cplxblur=20.0 / qblur=0.5 / ip_ratio=1.40 / aq=1:1.00
Default                                  : Yes
Forced                                   : No
Audio #1
ID                                       : 2
Format                                   : AC-3
Format/Info                              : Audio Coding 3
Mode extension                           : CM (complete main)
Format settings, Endianness              : Big
Codec ID                                 : A_AC3
Duration                                 : 1h 34mn
Bit rate mode                            : Constant
Bit rate                                 : 448 Kbps
Channel(s)                               : 6 channels
Channel positions                        : Front: L C R, Side: L R, LFE
Sampling rate                            : 48.0 KHz
Bit depth                                : 16 bits
Compression mode                         : Lossy
Stream size                              : 302 MiB (20%)
Title                                    : MVO
Language                                 : Russian
Default                                  : Yes
Forced                                   : No
Audio #2
ID                                       : 3
Format                                   : AC-3
Format/Info                              : Audio Coding 3
Mode extension                           : CM (complete main)
Format settings, Endianness              : Big
Codec ID                                 : A_AC3
Duration                                 : 1h 34mn
Bit rate mode                            : Constant
Bit rate                                 : 448 Kbps
Channel(s)                               : 6 channels
Channel positions                        : Front: L C R, Side: L R, LFE
Sampling rate                            : 48.0 KHz
Bit depth                                : 16 bits
Compression mode                         : Lossy
Stream size                              : 302 MiB (20%)
Title                                    : Original
Language                                 : English
Default                                  : No
Forced                                   : No
Text #1
ID                                       : 4
Format                                   : UTF-8
Codec ID                                 : S_TEXT/UTF8
Codec ID/Info                            : UTF-8 Plain Text
Title                                    : SDH
Language                                 : English
Default                                  : No
Forced                                   : No
Text #2
ID                                       : 5
Format                                   : UTF-8
Codec ID                                 : S_TEXT/UTF8
Codec ID/Info                            : UTF-8 Plain Text
Language                                 : Spanish
Default                                  : No
Forced                                   : No

Скриншот c названием фильма

Скриншоты





Последний раз редактировалось: Suxrob89 (2013-04-09 18:34), всего редактировалось 2 раз(а)

Создавать темы 09-Апр-2013 18:18

[Профиль]  [ЛС] 
Показать сообщения:    
Ответить на тему

Текущее время: 21-Окт 22:39

Часовой пояс: UTC + 5



Вы не можете начинать темы
Вы не можете отвечать на сообщения
Вы не можете редактировать свои сообщения
Вы не можете удалять свои сообщения
Вы не можете голосовать в опросах
Вы не можете прикреплять файлы к сообщениям
Вы не можете скачивать файлы