Война миров Z / World War Z (Марк Форстер) [2013 г., ужасы, фантастика, боевик, триллер, драма, BDRip]

Ответить на тему
 

Focus ®

Стаж: 5 лет 5 месяцев

Сообщений: 28

Симпатии: 2

Война миров Z / World War Z Год выпуска: 2013
Страна: США, Мальта
Студия: GK Films,Paramount Pictures,Skydance Productions
Жанр: ужасы, фантастика, боевик, триллер, драма
Продолжительность: 00:02:24
Перевод: Профессиональный (дублированный)
Режиссер: Марк Форстер
В ролях: Брэд Питт, Мэттью Фокс, Эрик Уэст, Джеймс Бэдж Дэйл
Описание: Нападение живых мертвецов — не шутка и не сказка. Зомби в одночасье стали реальностью — и реальность эта грозит гибелью всему человечеству. Гниющие, полуразложившиеся, они практически неуязвимы — зато мельчайшее ранение, нанесенное ими живому человеку, грозит превратить его в зомби. Армия живых мертвецов захватывает страну за страной, континент за континентом. Гибнут, пытаясь предотвратить грядущий Апокалипсис, тысячи военных России, десятки и сотни партизан Европы, Азии и США. Земля — на краю катастрофы. И совершенно неизвестно, как бороться с противником, который уже мертв…
Качество: DCPrip
Контейнер: MKV
Формат 3D: Half OverUnder / Вертикальная анаморфная стереопара
Порядок ракурсов: левый ракурс первый
Видео кодек: h.264
Аудио кодек : AC3
Видео: MPEG4 Video (H264),1920х1080,24fps,12,9 Мбит/сек
Аудио: Rus, Dolby AC3 48000Hz 6ch

MediaInfo

Общее
Уникальный идентификатор : 239300547374740249109951946805553254844 (0xB4079BE6C0307539957A11965945D1BC)
Полное имя : C:\Users\Администратор\Desktop\WWZ-2D_TLR-D.mkv
Формат : Matroska
Версия формата : Version 4 / Version 2
Размер файла : 235 Мбайт
Продолжительность : 2 м. 24 с.
Режим общего битрейта : Переменный
Общий поток : 13,6 Мбит/сек
Дата кодирования : UTC 2013-04-03 20:20:58
Программа кодирования : mkvmerge v6.1.0 ('Old Devil') built on Mar 2 2013 14:32:37
Библиотека кодирования : libebml v1.3.0 + libmatroska v1.4.0
Видео
Идентификатор : 1
Формат : AVC
Формат/Информация : Advanced Video Codec
Профиль формата : [email protected]
Параметр CABAC формата : Да
Параметр ReFrames формата : 2 кадра
Идентификатор кодека : V_MPEG4/ISO/AVC
Продолжительность : 2 м. 24 с.
Вид битрейта : Переменный
Битрейт : 12,9 Мбит/сек
Максимальный битрейт : 16,0 Мбит/сек
Ширина : 1920 пикселей
Высота : 1080 пикселей
Соотношение сторон : 16:9
Режим частоты кадров : Постоянный
Частота кадров : 24,000 кадра/сек
Цветовое пространство : YUV
Субдискретизация насыщенности : 4:2:0
Битовая глубина : 8 бит
Тип развёртки : Прогрессивная
Бит/(Пиксели*Кадры) : 0.258
Размер потока : 222 Мбайт (95%)
Default : Да
Forced : Нет
Аудио
Идентификатор : 2
Формат : AC-3
Формат/Информация : Audio Coding 3
Расширение режима : CM (complete main)
Параметр Endianness формата : Big
Идентификатор кодека : A_AC3
Продолжительность : 2 м. 24 с.
Вид битрейта : Постоянный
Битрейт : 448 Кбит/сек
Каналы : 6 каналов
Расположение каналов : Front: L C R, Side: L R, LFE
Частота : 48,0 КГц
Битовая глубина : 16 бит
Метод сжатия : С потерями
Размер потока : 7,74 Мбайт (3%)
Default : Да
Forced : Нет

Скриншоты



Создавать темы 09-Апр-2013 18:09

[Профиль]  [ЛС] 

jazz4fun69

Стаж: 4 года 8 месяцев

Сообщений: 69

трейлер bw
брэд питт в фильме про зомби, интересное сочетание

Создавать темы 09-Апр-2013 18:13

[Профиль]  [ЛС] 

hard92

Стаж: 5 лет

Сообщений: 60

будем ждать в качестве...

Создавать темы 09-Апр-2013 18:49

[Профиль]  [ЛС] 

Lazerboy

Стаж: 6 лет 6 месяцев

Сообщений: 57

Симпатии: 13

скрины что по две?

Создавать темы 09-Апр-2013 21:19

[Профиль]  [ЛС] 

sanjar_0009

Стаж: 5 лет 4 месяца

Сообщений: 50

Симпатии: 2

скрины что по две?
Формат 3D: Half OverUnder / Вертикальная анаморфная стереопара

Создавать темы 09-Апр-2013 22:47

[Профиль]  [ЛС] 

jazz4fun69

Стаж: 4 года 8 месяцев

Сообщений: 69

ну нарезать то нормально все равно можно^^

Создавать темы 09-Апр-2013 22:54

[Профиль]  [ЛС] 

Pinser

Стаж: 5 лет 8 месяцев

Сообщений: 9

Война миров с Том Крузом! Вот это фильм!
Нечего обшего !!!!

Создавать темы 11-Апр-2013 16:27

[Профиль]  [ЛС] 
Показать сообщения:    
Ответить на тему

Текущее время: 20-Ноя 00:55

Часовой пояс: UTC + 5



Вы не можете начинать темы
Вы не можете отвечать на сообщения
Вы не можете редактировать свои сообщения
Вы не можете удалять свои сообщения
Вы не можете голосовать в опросах
Вы не можете прикреплять файлы к сообщениям
Вы не можете скачивать файлы