28 дней спустя / 28 Days Later (Дэнни Бойл / Danny Boyle) [2002 г., Ужасы, Фантастика, Триллер, BDRip-AVC]

Ответить на тему
 

Machine ®

Стаж: 5 лет 3 месяца

Сообщений: 209

Симпатии: 68

28 дней спустя-28 Days Later-
«Твои дни сочтены!»
-
Год выпуска: 2002
Страна: Великобритания
Жанр: Ужасы, Фантастика, Триллер
Продолжительность: 01:53:07
Перевод: 1.Профессиональный (полное дублирование)
Перевод: 2.Одноголосый закадровый (Дмитрий «Гоблин» Пучков)-Режиссер: Дэнни Бойл / Danny Boyle-В ролях: Алекс Палмер, Бинду Де Стоппани, Юкка Хилтунен, Дэвид Шнайдер, Киллиан Мерфи, Тоби Седжвик, Наоми Харрис, Ной Хантли, Крис Данн, Эмма Хитчинг, Alexander Delamere, Kim McGarrity, Брендан Глисон, Меган Барнс, Джастин Хэкни, Люк Мабли, Стюарт МакКуорри, Ricci Harnett, Лео Билл, Junior Laniyan, Ray Panthaki-Описание: Группа «зеленых» экстремистов вторгается в центр исследования приматов и выпускает из секретной научной лаборатории обезьяну, зараженную вирусом неудержимой агрессии. Смертельный вирус, передающийся через кровь за считанные секунды, приводит к мгновенному заражению, и, соприкасаясь с любым живым существом, превращает его в кровожадного монстра. Через 4 недели вся Англия охвачена страшной эпидемией: многие люди эвакуируются, другие ищут безопасные места, в надежде спастись. Те, кому посчастливилось не заразиться, вместе с группой военных прячутся в заброшенном доме. Вместе им предстоит разобраться в ситуации и попытаться ее исправить...-

Внимание: Большая часть фильма (105 минут) снята на MiniDV-камеру Canon XL1S→ (хоть и с довольно хитрой навесной оптикой) — для большей аутентичности (по той же причине Бойл набрал практически безызвестных актёров). Поэтому практически весь BD-трансфер является, по сути, качественным студийным апскейлом.

-
Качество: BDRip
Формат: MKV
Видео кодек: AVC
Видео: 1280x688, 2074 Кбит/сек, 23.976 кадр/сек, AVC, x264, 1.860, 0.098 Бит
Аудио: 1: AC-3, 640 Кбит/сек, 6 канала(ов), 48,0 КГц - Дубляж
Аудио: 2: AC-3, 256 Кбит/сек, 6 канала(ов), 48,0 КГц - Одноголосый закадровый

Знаете ли вы, что...

• Гарланд рассказывал, что вдохновлялся сразу несколькими источниками – трилогией о мертвецах Джорджа Ромеро и романом Джона Уиндэма «День триффидов».
• Роль Джима предлагали Леонарду ДиКаприо, сыгравшему у Бойла в «Пляже».
• Роль майора Уэста предлагали Роберту Карлайлу, сыгравшему у Бойла в фильме «На игле» (1996).
• Пустынные улицы Лондона снимались с самого раннего утра, причем, у съемочной группы было не более пары минут ежедневно; случайных прохожих вежливо просили пройти другой дорогой.
• Больница в фильме самая настоящая, причем, во время съемок она функционировала, и авторам пришлось заплатить за возможность использовать для съемок отдельные больничные комнаты.
• Кристофер Экклстон и другие актеры, сыгравшие спасшийся отряд солдат, прошли трехдневную военную подготовку.
• Стивен Кинг купил для себя отдельный показ фильма.
• Однажды съемочная группа забыла подобрать после съемок фальшивые трупы у дороги к церкви. Местная парикмахерша проезжала мимо, увидела тела, запаниковала и разбила автомобиль, после чего позвонила в полицию. Съемочной команде этот инцидент стоил разбирательства в полиции.
• Другое столкновение с полицией состоялось во время съемок взрыва на бензозаправочной станции. У Бойла были все документы, разрешающие взрыв, но полицейских не предупредили, и они моментально выехали на место, едва узнали о взрыве. Туда же прибыла команда пожарных, хотя у съемочной группы была своя пожарная команда.
• Слово «fuck» произносится в фильме 61 раз.
• Фильм снят почти полностью на цифру. Лишь финальные сцены в коттедже отсняты на 35-миллиметровую пленку, а флэшбэки с родителями Джима на 8-миллиметровую.

MediaInfo

General
Unique ID : 192361592640530965558656483642618396734 (0x90B77EC19A466268955249E56E37C03E)
Complete name : D:\Video\Ôèëüìû\Torrents\28 äíåé ñïóñòÿ.(2002).mkv
Format : Matroska
Format version : Version 2
File size : 2.32 GiB
Duration : 1h 53mn
Overall bit rate mode : Variable
Overall bit rate : 2 939 Kbps
Movie name : Rip by NigAndr (NOLIMITS-TEAM.RU)
Encoded date : UTC 2010-11-18 04:03:50
Writing application : mkvmerge v3.0.0 ('Hang up your Hang-Ups') built on Dec 12 2009 15:20:35
Writing library : libebml v0.7.9 + libmatroska v0.8.1
Video #2
ID : 2
Format : AVC
Format/Info : Advanced Video Codec
Format profile : [email protected]
Format settings, CABAC : Yes
Format settings, ReFrames : 3 frames
Format settings, GOP : M=4, N=24
Codec ID : V_MPEG4/ISO/AVC
Duration : 1h 53mn
Bit rate mode : Variable
Bit rate : 2 074 Kbps
Maximum bit rate : 17.5 Mbps
Width : 1 280 pixels
Height : 688 pixels
Display aspect ratio : 1.85:1
Frame rate : 23.976 fps
Color space : YUV
Chroma subsampling : 4:2:0
Bit depth : 8 bits
Scan type : Progressive
Bits/(Pixel*Frame) : 0.098
Stream size : 1.57 GiB (68%)
Title : 28 äíåé ñïóñòÿ.(2002).[NoLimits-Team.ru]
Writing library : x264 core 105 r1732 2b04482
Encoding settings : cabac=1 / ref=3 / deblock=1:0:0 / analyse=0x3:0x113 / me=hex / subme=7 / psy=1 / psy_rd=1.00:0.00 / mixed_ref=1 / me_range=16 / chroma_me=1 / trellis=1 / 8x8dct=1 / cqm=0 / deadzone=21,11 / fast_pskip=1 / chroma_qp_offset=-2 / threads=6 / sliced_threads=0 / slices=4 / nr=0 / decimate=1 / interlaced=0 / constrained_intra=0 / bframes=3 / b_pyramid=1 / b_adapt=1 / b_bias=0 / direct=1 / weightb=1 / open_gop=0 / weightp=0 / keyint=24 / keyint_min=1 / scenecut=40 / intra_refresh=0 / rc_lookahead=24 / rc=abr / mbtree=1 / bitrate=2074 / ratetol=1.0 / qcomp=0.60 / qpmin=0 / qpmax=51 / qpstep=4 / vbv_maxrate=17500 / vbv_bufsize=14500 / ip_ratio=1.10 / aq=1:1.00 / nal_hrd=vbr
Language : English
Default : Yes
Forced : No
Audio #1
ID : 1
Format : AC-3
Format/Info : Audio Coding 3
Mode extension : CM (complete main)
Format settings, Endianness : Big
Codec ID : A_AC3
Duration : 1h 53mn
Bit rate mode : Constant
Bit rate : 640 Kbps
Channel(s) : 6 channels
Channel positions : Front: L C R, Side: L R, LFE
Sampling rate : 48.0 KHz
Bit depth : 16 bits
Compression mode : Lossy
Stream size : 518 MiB (22%)
Title : AC3 5.1 640 Kbps, Äóáëÿæ
Language : Russian
Default : Yes
Forced : No
Audio #3
ID : 3
Format : AC-3
Format/Info : Audio Coding 3
Mode extension : CM (complete main)
Format settings, Endianness : Big
Codec ID : A_AC3
Duration : 1h 53mn
Bit rate mode : Constant
Bit rate : 256 Kbps
Channel(s) : 6 channels
Channel positions : Front: L C R, Side: L R, LFE
Sampling rate : 48.0 KHz
Bit depth : 16 bits
Compression mode : Lossy
Stream size : 207 MiB (9%)
Title : Îäíîãîëîñûé çàêàäðîâûé, Äìèòðèé «Ãîáëèí» Ïó÷êîâ
Language : Russian
Default : No
Forced : No

Скриншоты



Последний раз редактировалось: Machine (2014-01-12 19:54), всего редактировалось 6 раз(а)

Создавать темы 09-Апр-2013 19:04

[Профиль]  [ЛС] 

Machine ®

Стаж: 5 лет 3 месяца

Сообщений: 209

Симпатии: 68

Извините конечно, но я уже не один релиз делал на трекерах, и наверно уже знаю как скриншоты делать. Я даже сейчас сам уже сомневаясь скачал собственный скрин и обнаружил что размер его является заявленому мной 1280x688..., что еще я могу сделать???

Создавать темы 09-Апр-2013 20:31

[Профиль]  [ЛС] 

Suxrob89

Стаж: 7 лет 4 месяца

Сообщений: 933

Симпатии: 564

кому нужен 28 недель спустя могу выложеть

Создавать темы 09-Апр-2013 22:16

[Профиль]  [ЛС] 

diyor-101

Стаж: 5 лет 11 месяцев

Сообщений: 112

Симпатии: 14

Почуму я не могу скачать торрент, Machine ® что то не так!

Создавать темы 09-Апр-2013 22:49

[Профиль]  [ЛС] 

Machine ®

Стаж: 5 лет 3 месяца

Сообщений: 209

Симпатии: 68

diyor-101, Может потому что я MediaInfo не выложил, поэтому статус не меняют, вот теперь думаю всё должно быть нормально.


Последний раз редактировалось: Machine (2014-11-18 12:35), всего редактировалось 1 раз

Создавать темы 09-Апр-2013 23:35

[Профиль]  [ЛС] 

Machine ®

Стаж: 5 лет 3 месяца

Сообщений: 209

Симпатии: 68

Suxrob89, На трекере же есть уже, ну смотря в каком размере выложить хочешь, я бы скачал где то в 5-8 гб размере)))

Создавать темы 10-Апр-2013 00:58

[Профиль]  [ЛС] 

Жавохир Заиров

Стаж: 4 года 7 месяцев

Сообщений: 1

дайте раздачу плиз

Создавать темы 29-Апр-2013 21:36

[Профиль]  [ЛС] 

tamasitto

Стаж: 4 года 4 месяца

Сообщений: 8

Дайте скорость пажалуйста!!!!!!!!!!

Создавать темы 01-Ноя-2013 16:33

[Профиль]  [ЛС] 

designzor

Стаж: 4 года 6 месяцев

Сообщений: 29

кому нужен 28 недель спустя могу выложеть
Хорошо бы, а то здесь http://tas-ix.net/viewtopic.php?t=50856 всё мхом поросло, просьбы игнорируются, все ушли на фронт!

Создавать темы 09-Фев-2014 14:32

[Профиль]  [ЛС] 

Бахытберген

Стаж: 4 года 7 месяцев

Сообщений: 66

Симпатии: 18

встаньте на раздачу плс, это один из моих любимых фильмов давно искал, дайте скачать

Создавать темы 20-Май-2015 12:41

[Профиль]  [ЛС] 

Lomayin_solman

Стаж: 4 года 9 месяцев

Сообщений: 12

Симпатии: 1

ребят пожалуйста дайте раздачу

Создавать темы 12-Июл-2016 17:17

[Профиль]  [ЛС] 
Показать сообщения:    
Ответить на тему

Текущее время: 14-Дек 14:47

Часовой пояс: UTC + 5



Вы не можете начинать темы
Вы не можете отвечать на сообщения
Вы не можете редактировать свои сообщения
Вы не можете удалять свои сообщения
Вы не можете голосовать в опросах
Вы не можете прикреплять файлы к сообщениям
Вы не можете скачивать файлы