Джек – убийца великанов / Jack the Giant Killer (Марк Аткинс / Mark Atkins) [2013, США, Фэнтези, Боевик, HDRip] DVO

Страницы :  1, 2, 3, 4, 5, 6, 7  След.

Ответить на тему
 

Suxrob89 ®

Стаж: 7 лет 4 месяца

Сообщений: 933

Симпатии: 564

-Джек – убийца великанов / Jack the Giant Killer- Страна: США
Жанр: Фэнтези, Боевик
Год выпуска: 2013
Продолжительность: 01:27:12
Перевод: Любительский (двухголосый закадровый)
Cубтитры: нет-Режиссер: Марк Аткинс / Mark Atkins-В ролях: Бен Кросс, Джейн Марч, Джулиан Бут, Дилан Джонс-Описание: Чтобы остановить ужасных чудовищ, угрожающих людям, смельчаку Джеку придётся вступить с ними в неравный бой…-Качество видео: HDRip
Формат видео: AVI
Видео: 720x400 (1.80:1), 23.976 fps, XviD MPEG-4 ~1791 kbps avg, 0.26 bit/pixel
Аудио: 48 kHz, AC3 Dolby Digital, 3/2 (L,C,R,l,r) + LFE ch, ~448 kbps

Media info

General
Complete name : C:\Раздача\Jack.ubijca.velikanov.2013.P2.HDRip.avi
Format : AVI
Format/Info : Audio Video Interleave
File size : 1.37 GiB
Duration : 1h 27mn
Overall bit rate : 2 249 Kbps
Writing application : VirtualDubMod 1.5.10.2 (build 2542/release)
Writing library : VirtualDubMod build 2542/release
Video #0
ID : 0
Format : MPEG-4 Visual
Format profile : Advanced [email protected]
Format settings, BVOP : 2
Format settings, QPel : No
Format settings, GMC : No warppoints
Format settings, Matrix : Default (MPEG)
Muxing mode : Packed bitstream
Codec ID : XVID
Codec ID/Hint : XviD
Duration : 1h 27mn
Bit rate : 1 792 Kbps
Width : 720 pixels
Height : 400 pixels
Display aspect ratio : 16:9
Frame rate : 23.976 fps
Color space : YUV
Chroma subsampling : 4:2:0
Bit depth : 8 bits
Scan type : Progressive
Compression mode : Lossy
Bits/(Pixel*Frame) : 0.260
Stream size : 1.09 GiB (80%)
Writing library : XviD 1.2.1 (UTC 2008-12-04)
Audio #1
ID : 1
Format : AC-3
Format/Info : Audio Coding 3
Mode extension : CM (complete main)
Format settings, Endianness : Big
Codec ID : 2000
Duration : 1h 27mn
Bit rate mode : Constant
Bit rate : 448 Kbps
Channel(s) : 6 channels
Channel positions : Front: L C R, Side: L R, LFE
Sampling rate : 48.0 KHz
Bit depth : 16 bits
Compression mode : Lossy
Stream size : 279 MiB (20%)
Alignment : Split accross interleaves
Interleave, duration : 42 ms (1.00 video frame)
Interleave, preload duration : 500 ms

Скриншот c названием фильма

Скриншоты






Последний раз редактировалось: Suxrob89 (2013-04-10 20:53), всего редактировалось 1 раз

Создавать темы 10-Апр-2013 06:50

[Профиль]  [ЛС] 

Топик был перенесен из форума Фильмы за 2012 в форум Фильмы за 2013 (новинки)

Suxrob89

Создавать темы 10-Апр-2013 06:55

 

ralex

Стаж: 5 лет 11 месяцев

Сообщений: 289

Симпатии: 28

Имейте в виду, что это не фильм - "Джек – покоритель великанов" / Jack The Giant Slayer (Брайан Сингер / Bryan Singer) 2013
Это ЧТО-ТО совсем другое!

Создавать темы 10-Апр-2013 08:22

[Профиль]  [ЛС] 

SNIL

Стаж: 5 лет 11 месяцев

Сообщений: 2624

Симпатии: 341

СПС качнём

Создавать темы 10-Апр-2013 09:13

[Профиль]  [ЛС] 

ALilSecret

Стаж: 5 лет 1 месяц

Сообщений: 45

Имейте в виду, что это не фильм - "Джек – покоритель великанов" / Jack The Giant Slayer (Брайан Сингер / Bryan Singer) 2013
Это ЧТО-ТО совсем другое!
Да это что-то другое, но тоже 2013 года))

Создавать темы 10-Апр-2013 11:53

[Профиль]  [ЛС] 

CrazY_Me

Стаж: 6 лет 6 месяцев

Сообщений: 10

Симпатии: 1

тв3 мде(((

Создавать темы 10-Апр-2013 13:46

[Профиль]  [ЛС] 

slay

Стаж: 6 лет 6 месяцев

Сообщений: 31

Симпатии: 1

Есть покоритель и есть убийца великанов!!! Не путайте!

Создавать темы 10-Апр-2013 14:07

[Профиль]  [ЛС] 

alx777

Стаж: 5 лет 10 месяцев

Сообщений: 87

Симпатии: 8

IMDb: 1.80 (408)
автор, хотя бы скрины свои сделал, а не тупо слил с соседнего трекера

Создавать темы 10-Апр-2013 14:19

[Профиль]  [ЛС] 

spaun-shadow

Стаж: 4 года 8 месяцев

Сообщений: 218

Симпатии: 98

Влился в раздачу.

Создавать темы 10-Апр-2013 14:57

[Профиль]  [ЛС] 

chico

Стаж: 5 лет 11 месяцев

Сообщений: 10

тв3 это

Создавать темы 10-Апр-2013 16:46

[Профиль]  [ЛС] 

nodicjon

Стаж: 5 лет 1 месяц

Сообщений: 1

вот молоцы продюсеры, решили рискнуть и заработать на чужой рекламе фильма ))
интересно будет посмотреть какой бюджет и сбор у фильма через год...
IMDb: 1.80 (408)
автор, хотя бы скрины свои сделал, а не тупо слил с соседнего трекера
чем, интересно, скрины "соседнего трекера" провинились? спасибо лучше бы сказал ... :tm:

Создавать темы 10-Апр-2013 16:52

[Профиль]  [ЛС] 

Anastasiyaa

Стаж: 5 лет 7 месяцев

Сообщений: 12

Симпатии: 1

Чем разница с Джек – убийца великанов / Jack the Giant Killer (Марк Аткинс) [2013 г., боевик, HDRip] ?

Создавать темы 10-Апр-2013 21:36

[Профиль]  [ЛС] 

kozimbek.0k

Стаж: 6 лет 7 месяцев

Сообщений: 109

Симпатии: 7

тв3 это
ага это точно

Создавать темы 10-Апр-2013 23:54

[Профиль]  [ЛС] 

SNIL

Стаж: 5 лет 11 месяцев

Сообщений: 2624

Симпатии: 341

Отпишитесь как фильмец? Стоит ли вобше замарачиватся?

Создавать темы 11-Апр-2013 08:49

[Профиль]  [ЛС] 

alx777

Стаж: 5 лет 10 месяцев

Сообщений: 87

Симпатии: 8

Отпишитесь как фильмец? Стоит ли вобше замарачиватся?
Фильм не о чем.картонная графика,смысла 0.Да и рейтинг данного фильма IMDb: 1.80 (408) говорит о многом
вот молоцы продюсеры, решили рискнуть и заработать на чужой рекламе фильма ))
интересно будет посмотреть какой бюджет и сбор у фильма через год...
бюджет, останется таким же, его уже сняли.Да и в кинотеатрах подобные фильмы не показывают
чем, интересно, скрины "соседнего трекера" провинились? спасибо лучше бы сказал ... :tm:
Скрины в порядке.Просто надо уважать труды других людей которые выложили его на соседнем трекере,оформляли,делали скрины ,скачивали его с внешнего канала

Создавать темы 11-Апр-2013 09:34

[Профиль]  [ЛС] 
Показать сообщения:    
Ответить на тему

Текущее время: 18-Дек 17:51

Часовой пояс: UTC + 5



Вы не можете начинать темы
Вы не можете отвечать на сообщения
Вы не можете редактировать свои сообщения
Вы не можете удалять свои сообщения
Вы не можете голосовать в опросах
Вы не можете прикреплять файлы к сообщениям
Вы не можете скачивать файлы