Город порока / Broken City (Аллен Хьюз / Allen Hughes) [2013, США, Триллер, драма, криминал, HDRip] VO

Страницы :  1, 2  След.

Ответить на тему
 

Suxrob89 ®

Стаж: 7 лет 1 месяц

Сообщений: 933

Симпатии: 564

-Город порока / Broken City- Год выпуска: 2013
Страна: США
Жанр: триллер, драма, криминал
Продолжительность: 01:42:16
Перевод: Любительский (одноголосый)
Cубтитры: нет-Режиссер: Аллен Хьюз / Allen Hughes-В ролях: Марк Уолберг Рассел Кроу Кэтрин Зета-Джонс Барри Пеппер Кайл Чандлер Натали Мартинез Джеффри Райт Алона Тал Майкл Бич Джеймс Рэнсон-Описание: История бывшего полицейского Билли Таггерта. Восемь лет назад он стрелял в 16-летнего подростка, за что был уволен из полиции. Теперь Таггерт работает частным детективом, которого нанимает мэр, чтобы тот разузнал, не изменяет ли ему жена. Однако расследование адюльтера супруги мэра выливается в настоящий скандал. Человек, с которым жена мэра изменяла мужу, убит, а на поверхность всплывает нехорошая история с недвижимостью.- -Качество: HDRip
Формат: AVI
Видео кодек: XviD
Аудио кодек: AC3
Видео: 720x304 (2.37:1), 23.976 fps, XviD build 50 ~1611 kbps avg, 0.31 bit/pixel
Аудио: 48 kHz, AC3 Dolby Digital, 2/0 (L,R) ch, ~192 kbps-

Media info

G:\Город порока.L1.HDRip.avi
General
Complete name : G:\Город порока.L1.HDRip.avi
Format : AVI
Format/Info : Audio Video Interleave
File size : 1.37 GiB
Duration : 1h 47mn
Overall bit rate : 1 813 Kbps
Movie name : Mas estrenos en wWw.PelisPorDD.com
Writing application : VirtualDubMod 1.5.10.2 (build 2540/release)
Writing library : VirtualDubMod build 2540/release
Video #0
ID : 0
Format : MPEG-4 Visual
Format profile : Advanced [email protected]
Format settings, BVOP : Yes
Format settings, QPel : No
Format settings, GMC : No warppoints
Format settings, Matrix : Default (H.263)
Codec ID : XVID
Codec ID/Hint : XviD
Duration : 1h 47mn
Bit rate : 1 612 Kbps
Width : 720 pixels
Height : 304 pixels
Display aspect ratio : 2.35:1
Frame rate : 23.976 fps
Color space : YUV
Chroma subsampling : 4:2:0
Bit depth : 8 bits
Scan type : Progressive
Bits/(Pixel*Frame) : 0.307
Stream size : 1.21 GiB (89%)
Writing library : XviD 1.2.1 (UTC 2008-12-04)
Audio #1
ID : 1
Format : AC-3
Format/Info : Audio Coding 3
Mode extension : CM (complete main)
Codec ID : 2000
Duration : 1h 47mn
Bit rate mode : Constant
Bit rate : 192 Kbps
Channel(s) : 2 channels
Channel positions : Front: L R
Sampling rate : 48.0 KHz
Bit depth : 16 bits
Stream size : 148 MiB (11%)
Alignment : Split accross interleaves
Interleave, duration : 42 ms (1.00 video frame)
Interleave, preload duration : 500 ms

Скриншот c названием фильма

Скриншоты



Последний раз редактировалось: Suxrob89 (2013-04-10 20:55), всего редактировалось 1 раз

Создавать темы 10-Апр-2013 16:54

[Профиль]  [ЛС] 

3aHo3a

Стаж: 5 лет 4 месяца

Сообщений: 54

Исправьте опечатку в слове скриншоты. У вас скриншИты.

_________________
Подпись отключена за нарушение правил форума

Создавать темы 10-Апр-2013 17:43

[Профиль]  [ЛС] 

vitya9608

Стаж: 4 года 10 месяцев

Сообщений: 26

Симпатии: 1

дайте скорость

_________________
Подпись отключена за нарушение правил форума

Создавать темы 10-Апр-2013 18:27

[Профиль]  [ЛС] 

LiX

Стаж: 6 лет 3 месяца

Сообщений: 254

Симпатии: 6

Марк Уолберг в плохих фильмах не снимается! Так что буду качать)

Создавать темы 10-Апр-2013 18:35

[Профиль]  [ЛС] 

Twista

Стаж: 5 лет 8 месяцев

Сообщений: 156

Симпатии: 15

Перевод: Любительский (одноголосый), звук с CAMRip ?

_________________
Подпись отключена за нарушение правил форума

Создавать темы 11-Апр-2013 02:13

[Профиль]  [ЛС] 

ibragimof

Стаж: 6 лет 5 месяцев

Сообщений: 253

Симпатии: 48

Twista, в CamRip'е не бывает одноголосного перевода

Создавать темы 11-Апр-2013 11:30

[Профиль]  [ЛС] 

Twista

Стаж: 5 лет 8 месяцев

Сообщений: 156

Симпатии: 15

Twista, в CamRip'е не бывает одноголосного перевода
а это че ?
просто чистый звук вышел только вчера вроде , у меня он есть, но жалко одноголоска (

_________________
Подпись отключена за нарушение правил форума

Создавать темы 11-Апр-2013 12:04

[Профиль]  [ЛС] 

Esh

Стаж: 6 лет 10 месяцев

Сообщений: 21

Twista,
CAMRip (CAM) - Иногда ошибочно помечают как Screen (SCR). Видео и звук кинофильма записывают в зале кинотеатра. Изображение может быть снятым под углом, можно увидеть головы кинозрителей, услышать кашель и смех. Зато CAM-Rip релизы можно бысро найти в Интернете после официального релиза кинокартины.

Создавать темы 11-Апр-2013 13:11

[Профиль]  [ЛС] 

Twista

Стаж: 5 лет 8 месяцев

Сообщений: 156

Симпатии: 15

Twista,
CAMRip (CAM) - Иногда ошибочно помечают как Screen (SCR). Видео и звук кинофильма записывают в зале кинотеатра. Изображение может быть снятым под углом, можно увидеть головы кинозрителей, услышать кашель и смех. Зато CAM-Rip релизы можно бысро найти в Интернете после официального релиза кинокартины.
к чему это ?) это я знаю ) но с киностеатра записали в одноголоске !) мде

_________________
Подпись отключена за нарушение правил форума

Создавать темы 11-Апр-2013 13:22

[Профиль]  [ЛС] 

adham1990.04

Стаж: 6 лет 3 месяца

Сообщений: 186

как фильм народ ???

Создавать темы 11-Апр-2013 22:25

[Профиль]  [ЛС] 

joky

Стаж: 5 лет 5 месяцев

Сообщений: 2

народ у кого есть лицуха залейте плиз =)

Создавать темы 17-Апр-2013 11:54

[Профиль]  [ЛС] 

exciter

Стаж: 7 лет 3 месяца

Сообщений: 158

Симпатии: 2

Спасибо!!! прибавьте скорости ЗАРАНЕЕ СПС

Создавать темы 17-Апр-2013 18:09

[Профиль]  [ЛС] 

Jnec

Стаж: 4 года 11 месяцев

Сообщений: 165

Спасибо!!!

Создавать темы 01-Май-2013 13:02

[Профиль]  [ЛС] 

ASUS F5

Стаж: 5 лет 4 месяца

Сообщений: 58

Симпатии: 3

Спасибо!!

Создавать темы 03-Май-2013 21:17

[Профиль]  [ЛС] 

ZeroX

Стаж: 5 лет 6 месяцев

Сообщений: 146

Симпатии: 3

-Когда лицензия выйдет?

Создавать темы 03-Май-2013 21:22

[Профиль]  [ЛС] 
Показать сообщения:    
Ответить на тему

Текущее время: 23-Сен 09:00

Часовой пояс: UTC + 5



Вы не можете начинать темы
Вы не можете отвечать на сообщения
Вы не можете редактировать свои сообщения
Вы не можете удалять свои сообщения
Вы не можете голосовать в опросах
Вы не можете прикреплять файлы к сообщениям
Вы не можете скачивать файлы