Земля обетованная / Promised Land (Гас Ван Сент / Gus Van Sant) [2012, США, Драма, WEB-DLRip] DVO (ViruseProject)

Ответить на тему
 

Suxrob89 ®

Стаж: 7 лет 1 месяц

Сообщений: 933

Симпатии: 564

-Земля обетованная / Promised Land-«What's your price?»- Год выпуска: 2012
Страна: США
Жанр: Драма
Продолжительность: 01:46:36
Перевод: Любительский (двухголосый, закадровый) [ViruseProject]
Субтитры: нет-Режиссер:
  • Гас Ван Сент / Gus Van Sant
В ролях:
  • Мэтт Дэймон, Джон Красински, Фрэнсис МакДорманд, Розмари ДеУитт, Лукас Блэк и др.
-Описание:
  • Корпоративный агент Стив Батлер и его партнер Сью Томасон приезжают в маленький городок, в последние годы переживающий кризис. Местные жители готовы принять предложение компании и дать согласие на бурение скважины на территории их собственности. Все осложняется, когда в дело вмешиваются школьный учитель и представитель профсоюза, с которым у Стива личные счеты.
- -Перевод: Dr. Pro
Текст читали: Дмитрий Кравченко и Марина Видякина
Звукорежиссёр: Виталий Емельянов-Качество: WEB-DLRip
Формат: AVI
Видео: 720x384 (4:2:0), 23.976 fps, XviD, ~1509 kbps avg, 0.228 bit/pixel
Аудио: 48 kHz, AC3 Dolby Digital, 2/0 (L,R), 448 kbps-

Mediainfo

General
Complete name : D:\Фильмы\Земля обетованная.P2.WEB-DLRip.avi
Format : AVI
Format/Info : Audio Video Interleave
File size : 1.46 GiB
Duration : 1h 46mn
Overall bit rate : 1 966 Kbps
Writing application : VirtualDubMod 1.5.10.3 | www.virtualdub-fr.org || (build 2550/release)
Writing library : VirtualDubMod build 2550/release
Video
ID : 0
Format : MPEG-4 Visual
Format profile : Advanced [email protected]
Format settings, BVOP : 2
Format settings, QPel : No
Format settings, GMC : No warppoints
Format settings, Matrix : Default (MPEG)
Codec ID : XVID
Codec ID/Hint : XviD
Duration : 1h 46mn
Bit rate : 1 509 Kbps
Width : 720 pixels
Height : 384 pixels
Display aspect ratio : 1.875
Frame rate : 23.976 fps
Color space : YUV
Chroma subsampling : 4:2:0
Bit depth : 8 bits
Scan type : Progressive
Compression mode : Lossy
Bits/(Pixel*Frame) : 0.228
Stream size : 1.12 GiB (77%)
Writing library : XviD 1.2.1 (UTC 2008-12-04)
Audio
ID : 1
Format : AC-3
Format/Info : Audio Coding 3
Mode extension : CM (complete main)
Codec ID : 2000
Duration : 1h 46mn
Bit rate mode : Constant
Bit rate : 448 Kbps
Channel(s) : 2 channels
Channel positions : Front: L R
Sampling rate : 48.0 KHz
Bit depth : 16 bits
Compression mode : Lossy
Delay relative to video : 30ms
Stream size : 341 MiB (23%)
Alignment : Split accross interleaves
Interleave, duration : 42 ms (1.00 video frame)
Interleave, preload duration : 500 ms

Скриншот с названием фильма

Скриншоты




Создавать темы 13-Апр-2013 18:16

[Профиль]  [ЛС] 
Показать сообщения:    
Ответить на тему

Текущее время: 25-Сен 20:22

Часовой пояс: UTC + 5



Вы не можете начинать темы
Вы не можете отвечать на сообщения
Вы не можете редактировать свои сообщения
Вы не можете удалять свои сообщения
Вы не можете голосовать в опросах
Вы не можете прикреплять файлы к сообщениям
Вы не можете скачивать файлы