Отверженные / Les Miserables (Том Хупер / Tom Hooper) [2012 г., мюзикл, драма, мелодрама, HDRip][лицензия]

Ответить на тему
 

Suxrob89 ®

Стаж: 7 лет 2 месяца

Сообщений: 933

Симпатии: 564

-Отверженные / Les Miserables-«Борьба. Мечта. Надежда. Любовь.»- Год выпуска: 2012
Страна: Великобритания
Жанр: мюзикл, драма, мелодрама
Продолжительность: 02:37:54
Перевод: Профессиональный (дублированный) [лицензия]
Субтитры : есть (русские)-Режиссер: Том Хупер / Tom Hooper
Продюссер: Тим Беван, Эрик Феллнер, Камерон Макинтош
Сценарий: Ален Бублиль, Герберт Крецмер, Жан-Марк Натель-В ролях: Хью Джекман, Рассел Кроу, Энн Хэтэуэй, Аманда Сайфред, Эдди Редмэйн, Хелена Бонем Картер, Саша Барон Коэн, Аарон Твейт, Саманта Баркс, Дэниэл Хаттлстоун-Описание: Действие развивается в начале XIX столетия. Беглый каторжник Жан Вальжан, приговоренный к тюремному заключению, вынужден долгие годы скрываться от жестокого правосудия. Инспектор парижской полиции Жавер считает его поимку делом всей своей жизни. После смерти Фантины — женщины, за судьбу которой Жан Вальжан считал себя в ответе, — единственным близким ему человеком остается ее дочь Козетта. Ради счастья девушки Жан готов на все.-Доп. информация: На моменты мюзикла вшиты форсированные русские субтитры!.- --Качество: HDRip
Формат: AVI
Видео кодек: XviD
Аудио кодек: MP3
Видео: 720x384 (1.85:1); 1 471 Kbps; 23.976 fps
Аудио: AC3; 6 channels; 384 Kbps-

Media info

G:\Neotverjennye.2012.D.HDRip.2100MB.avi
General
Complete name : G:\Neotverjennye.2012.D.HDRip.2100MB.avi
Format : AVI
Format/Info : Audio Video Interleave
Format profile : OpenDML
File size : 2.06 GiB
Duration : 2h 37mn
Overall bit rate : 1 867 Kbps
Writing application : VirtualDubMod 1.5.10.2 (build 2542/release)
Writing library : VirtualDubMod build 2542/release
Video #0
ID : 0
Format : MPEG-4 Visual
Format profile : Advanced [email protected]
Format settings, BVOP : Yes
Format settings, QPel : No
Format settings, GMC : No warppoints
Format settings, Matrix : Default (MPEG)
Muxing mode : Packed bitstream
Codec ID : XVID
Codec ID/Hint : XviD
Duration : 2h 37mn
Bit rate : 1 471 Kbps
Width : 720 pixels
Height : 384 pixels
Display aspect ratio : 1.875
Frame rate : 23.976 fps
Color space : YUV
Chroma subsampling : 4:2:0
Bit depth : 8 bits
Scan type : Progressive
Bits/(Pixel*Frame) : 0.222
Stream size : 1.62 GiB (79%)
Writing library : XviD 1.2.1 (UTC 2008-12-04)
Audio #1
ID : 1
Format : AC-3
Format/Info : Audio Coding 3
Mode extension : CM (complete main)
Codec ID : 2000
Duration : 2h 37mn
Bit rate mode : Constant
Bit rate : 384 Kbps
Channel(s) : 6 channels
Channel positions : Front: L C R, Side: L R, LFE
Sampling rate : 48.0 KHz
Bit depth : 16 bits
Video delay : 21ms
Stream size : 433 MiB (21%)
Alignment : Split accross interleaves
Interleave, duration : 42 ms (1.00 video frame)
Interleave, preload duration : 500 ms

Скриншот с названием фильма

Скриншоты






Последний раз редактировалось: Suxrob89 (2013-05-10 15:51), всего редактировалось 4 раз(а)

Создавать темы 14-Апр-2013 04:08

[Профиль]  [ЛС] 

skyrocker

Стаж: 5 лет 7 месяцев

Сообщений: 96

Симпатии: 3

Это как раз то чего я ждал!! Спасибо)

Создавать темы 14-Апр-2013 12:43

[Профиль]  [ЛС] 

marat_net

Стаж: 4 года 8 месяцев

Сообщений: 15

На моменты мюзикла вшиты форсированные русские субтитры или переводили с голосом???

Создавать темы 15-Апр-2013 13:11

[Профиль]  [ЛС] 

marat_net

Стаж: 4 года 8 месяцев

Сообщений: 15

смотреть не возможна читать надо субтитры с начало до конца !!!

Создавать темы 15-Апр-2013 13:13

[Профиль]  [ЛС] 

skyrocker

Стаж: 5 лет 7 месяцев

Сообщений: 96

Симпатии: 3

Уууууухх!! Это было круто!! какие эмоции!!

Создавать темы 16-Апр-2013 23:26

[Профиль]  [ЛС] 

a3azello

Стаж: 4 года 5 месяцев

Сообщений: 7

дайте скорости!

Создавать темы 18-Май-2013 19:29

[Профиль]  [ЛС] 

VAIO

Стаж: 5 лет 9 месяцев

Сообщений: 1568

Симпатии: 1399

Просто не мог не прокомментировать этот фильм, один из самых лучших фильмов которые Я смотрел ! Актеры сильные, сыграли просто великолепно! Сюжет просто потрясающий и режиссеру отдельно спасибо за такой великолепный фильм !!!

Создавать темы 06-Июн-2013 18:11

[Профиль]  [ЛС] 

anignom

Стаж: 5 лет 8 месяцев

Сообщений: 21

Симпатии: 1

скорости плиииз!

Создавать темы 29-Июн-2013 19:41

[Профиль]  [ЛС] 

atario

Стаж: 6 лет 5 месяцев

Сообщений: 15

Отличный урок английского. Фильм просто класс!

Создавать темы 17-Июл-2013 20:29

[Профиль]  [ЛС] 

Akmal_xD

Стаж: 4 года 3 месяца

Сообщений: 47

Симпатии: 3

скорости плиз!

Создавать темы 27-Июл-2013 21:46

[Профиль]  [ЛС] 
Показать сообщения:    
Ответить на тему

Текущее время: 23-Окт 18:41

Часовой пояс: UTC + 5



Вы не можете начинать темы
Вы не можете отвечать на сообщения
Вы не можете редактировать свои сообщения
Вы не можете удалять свои сообщения
Вы не можете голосовать в опросах
Вы не можете прикреплять файлы к сообщениям
Вы не можете скачивать файлы